[剧情片] 蜻蜓/鬼胎记 Dragonfly.2002.1080p.AMZN.WEBRip.DDP5.1.x264-spartanec163 10.69GB

[复制链接]
蓝鸟VIP会员 永久VIP 发表于 7 天前 | 显示全部楼层 |阅读模式 打印 上一主题 下一主题

马上注册,轻松下载,海量资源,让你轻松玩转社区。

您需要 登录 才可以下载或查看,没有帐号?立即注册

x


译  名 蜻蜓 / 鬼胎记 / 鬼谜
片  名 Dragonfly
年  代 2002
产  地 美国 / 德国
类  别 剧情 / 爱情 / 悬疑 / 惊悚 / 奇幻
语  言 英语 / 西班牙语
上映日期 2002-02-22
IMDb评分  6.1/10 from 35030 users
IMDb链接  http://www.imdb.com/title/tt0259288
豆瓣评分 6.7/10 from 1371 users
豆瓣链接 https://movie.douban.com/subject/1306602/
片  长 104 分钟
导  演 Tom Shadyac
编  剧 Brandon Camp / Mike Thompson / David Seltzer
主  演 Kevin Costner
      Susanna Thompson
      Joe Morton
      Ron Rifkin
      Kathy Bates


标  签 悬疑 | 美国 | 惊悚 | 异灵 | 心理 | 美国电影 | KevinCostner | 2002

简  介  

  乔(凯文·科斯特纳 Kevin Costner 饰)的妻子艾米丽(苏珊娜·汤姆森 Susanna Thompson 饰)死于一场车祸,讽刺的是,在医院担任心理创伤治疗的乔这一回却无法修复自己破碎的内心。乔的世界崩塌了,他抑郁,酗酒,对于工作的无法放弃和责任感成为了他活在这个世界上的唯一理由。
一次偶然中,乔被委托完成一项工作,他的病人们是身患绝症的儿童。令乔感到意外的是,艾米丽生前一直照料着的,正是这些儿童。为了怀念妻子,乔毅然接手了这项工作,天真懵懂的孩童逐渐治愈了乔的内心,正当他的生活逐渐走上正轨之时,一个意外的消息再次扰乱了乔的内心,一个有过濒死经历的孩子告诉乔,他在“那个世界”里看到了艾米丽,而艾米丽似乎有着什么话想要传达给乔。



该资源信息参数
  1. Video
  2. ID                                       : 1
  3. Format                                   : AVC
  4. Format/Info                              : Advanced Video Codec
  5. Format profile                           : <a href="/cdn-cgi/l/email-protection" class="__cf_email__" data-cfemail="6f270608072f235b">[email protected]</a>
  6. Format settings, CABAC                   : Yes
  7. Format settings, ReFrames                : 4 frames
  8. Codec ID                                 : V_MPEG4/ISO/AVC
  9. Duration                                 : 1 h 44 min
  10. Bit rate mode                            : Variable
  11. Bit rate                                 : 14.0 Mb/s
  12. Maximum bit rate                         : 15.0 Mb/s
  13. Width                                    : 1 920 pixels
  14. Height                                   : 1 080 pixels
  15. Display aspect ratio                     : 16:9
  16. Frame rate mode                          : Constant
  17. Frame rate                               : 23.976 (24000/1001) FPS
  18. Color space                              : YUV
  19. Chroma subsampling                       : 4:2:0
  20. Bit depth                                : 8 bits
  21. Scan type                                : Progressive
  22. Bits/(Pixel*Frame)                       : 0.282
  23. Stream size                              : 10.2 GiB (96%)
  24. Title                                    : WEB-DL 1080p (Amazon)
  25. Language                                 : English
  26. Default                                  : Yes
  27. Forced                                   : No
  28. Color range                              : Limited
  29. Color primaries                          : BT.709
  30. Transfer characteristics                 : BT.709
  31. Matrix coefficients                      : BT.709

  32. Audio
  33. ID                                       : 2
  34. Format                                   : E-AC-3
  35. Format/Info                              : Enhanced Audio Coding 3
  36. Format settings, Endianness              : Big
  37. Codec ID                                 : A_EAC3
  38. Duration                                 : 1 h 44 min
  39. Bit rate mode                            : Constant
  40. Bit rate                                 : 640 kb/s
  41. Channel(s)                               : 6 channels
  42. Channel positions                        : Front: L C R, Side: L R, LFE
  43. Sampling rate                            : 48.0 kHz
  44. Frame rate                               : 187.500 FPS (256 spf)
  45. Compression mode                         : Lossy
  46. Stream size                              : 478 MiB (4%)
  47. Title                                    : E-AC3 5.1 640Kbps
  48. Language                                 : English
  49. Service kind                             : Complete Main
  50. Default                                  : Yes
  51. Forced                                   : No

  52. Text #1
  53. ID                                       : 3
  54. Format                                   : UTF-8
  55. Codec ID                                 : S_TEXT/UTF8
  56. Codec ID/Info                            : UTF-8 Plain Text
  57. Duration                                 : 1 h 36 min
  58. Bit rate                                 : 81 b/s
  59. Count of elements                        : 940
  60. Stream size                              : 57.5 KiB (0%)
  61. Language                                 : Russian
  62. Default                                  : No
  63. Forced                                   : No

  64. Text #2
  65. ID                                       : 4
  66. Format                                   : UTF-8
  67. Codec ID                                 : S_TEXT/UTF8
  68. Codec ID/Info                            : UTF-8 Plain Text
  69. Duration                                 : 1 h 42 min
  70. Bit rate                                 : 48 b/s
  71. Count of elements                        : 1201
  72. Stream size                              : 36.3 KiB (0%)
  73. Language                                 : English
  74. Default                                  : No
  75. Forced                                   : No
复制代码


精彩剧照




蓝光高清网提示您 点击下方附件名称 马上开始下载



温馨提示:
本站资源优先使用迅雷下载,迅雷会员下载,速度基本可以跑满宽带
如果遇到无资源或者版权问题无法下载,推荐使用115网盘离线下载(点击查看115网盘离线下载教程


  • 该资源需要您回复以后 刷新网页进行下载操作

  • 1、Dragonfly.2002.1080p.AMZN.WEBRip.DDP5.1.x264-spartanec163.torrent 54KB 已下载 0 次

加入蓝光高清网VIP会员  无限制下载本站所有资源---点此加入

资源下载、资源播放、字幕使用、无法下载等常见问题---点这里

回复

使用道具 举报

懒得打字嘛,点击右侧快捷回复
高级模式
B Color Image Link Quote Code Smilies 上传

本版积分规则

关注0

粉丝0

帖子43688

发布主题
最新电影 论坛
广告位

Archiver手机版蓝光高清网 ( 渝ICP备18006373号-2 )|网站地图

Powered by Discuz! X3.4  © 2001-2013 Comsenz Inc.