[剧情片] 天生杀手 Born.to.Kill.1947.1080p.AMZN.WEBRip.DDP2.0.x264-ABM 8.54GB

[复制链接]
蓝鸟VIP会员 永久VIP 发表于 7 天前 | 显示全部楼层 |阅读模式 打印 上一主题 下一主题

马上注册,轻松下载,海量资源,让你轻松玩转社区。

您需要 登录 才可以下载或查看,没有帐号?立即注册

x


译  名 天生杀手 / Lady of Deceit / 双尸案(香港)
片  名 Born to Kill
年  代 1947
产  地 美国
类  别 剧情 / 犯罪 / 黑色电影
语  言 英语
上映日期 1947-05-03
IMDb评分  7.3/10 from 3985 users
IMDb链接  http://www.imdb.com/title/tt0039211
豆瓣评分 7.0/10 from 54 users
豆瓣链接 https://movie.douban.com/subject/3228653/
片  长 92 分钟
导  演 罗伯特·怀斯 Robert Wise
编  剧 Eve Green / 理查德·麦考利 Richard Macaulay
主  演 Lawrence Tierney
      Claire Trevor
      Walter Slezak


标  签 黑色电影 | 美国 | 罗伯特·怀斯 | Film-Noir | Robert_Wise | 1947 | 1940s | RobertWise

简  介  

  Helen Brent has just received a Reno divorce. That night, she discovers one of her neighbors, Laury Palmer, and a gentleman caller murdered in their home. The killer is her neighbor"s other boyfriend, who won"t abide anyone "cutting in" on him. This is Sam Wilde, a man who knows what he wants, is insanely jealous of what he has, and will kill to keep it. Rather than tell the police what she knows, Helen hops a train back to San Francisco...



该资源信息参数
  1. Video
  2. ID                                       : 1
  3. Format                                   : AVC
  4. Format/Info                              : Advanced Video Codec
  5. Format profile                           : <a href="/cdn-cgi/l/email-protection" class="__cf_email__" data-cfemail="9cd4f5fbf4dcd0a8">[email protected]</a>
  6. Format settings                          : CABAC / 4 Ref Frames
  7. Format settings, CABAC                   : Yes
  8. Format settings, Reference frames        : 4 frames
  9. Codec ID                                 : V_MPEG4/ISO/AVC
  10. Duration                                 : 1 h 32 min
  11. Bit rate mode                            : Variable
  12. Bit rate                                 : 13.0 Mb/s
  13. Maximum bit rate                         : 15.0 Mb/s
  14. Width                                    : 1 440 pixels
  15. Height                                   : 1 080 pixels
  16. Display aspect ratio                     : 4:3
  17. Frame rate mode                          : Constant
  18. Frame rate                               : 23.976 (24000/1001) FPS
  19. Color space                              : YUV
  20. Chroma subsampling                       : 4:2:0
  21. Bit depth                                : 8 bits
  22. Scan type                                : Progressive
  23. Bits/(Pixel*Frame)                       : 0.350
  24. Stream size                              : 8.40 GiB (98%)
  25. Default                                  : Yes
  26. Forced                                   : No
  27. Color range                              : Limited
  28. Color primaries                          : BT.709
  29. Transfer characteristics                 : BT.709
  30. Matrix coefficients                      : BT.709

  31. Audio
  32. ID                                       : 2
  33. Format                                   : E-AC-3
  34. Format/Info                              : Enhanced AC-3
  35. Commercial name                          : Dolby Digital Plus
  36. Codec ID                                 : A_EAC3
  37. Duration                                 : 1 h 32 min
  38. Bit rate mode                            : Constant
  39. Bit rate                                 : 224 kb/s
  40. Channel(s)                               : 2 channels
  41. Channel layout                           : L R
  42. Sampling rate                            : 48.0 kHz
  43. Frame rate                               : 31.250 FPS (1536 SPF)
  44. Compression mode                         : Lossy
  45. Stream size                              : 148 MiB (2%)
  46. Language                                 : English
  47. Service kind                             : Complete Main
  48. Default                                  : Yes
  49. Forced                                   : No

  50. Text
  51. ID                                       : 3
  52. Format                                   : UTF-8
  53. Codec ID                                 : S_TEXT/UTF8
  54. Codec ID/Info                            : UTF-8 Plain Text
  55. Duration                                 : 1 h 29 min
  56. Bit rate                                 : 83 b/s
  57. Count of elements                        : 2057
  58. Stream size                              : 54.9 KiB (0%)
  59. Language                                 : English
  60. Default                                  : No
  61. Forced                                   : No
复制代码


精彩剧照




蓝光高清网提示您 点击下方附件名称 马上开始下载



温馨提示:
本站资源优先使用迅雷下载,迅雷会员下载,速度基本可以跑满宽带
如果遇到无资源或者版权问题无法下载,推荐使用115网盘离线下载(点击查看115网盘离线下载教程


  • 该资源需要您回复以后 刷新网页进行下载操作

  • 1、Born.to.Kill.1947.1080p.AMZN.WEBRip.DDP2.0.x264-ABM.torrent 43KB 已下载 0 次

加入蓝光高清网VIP会员  无限制下载本站所有资源---点此加入

资源下载、资源播放、字幕使用、无法下载等常见问题---点这里

回复

使用道具 举报

懒得打字嘛,点击右侧快捷回复
高级模式
B Color Image Link Quote Code Smilies 上传

本版积分规则

关注0

粉丝0

帖子43687

发布主题
最新电影 论坛
广告位

Archiver手机版蓝光高清网 ( 渝ICP备18006373号-2 )|网站地图

Powered by Discuz! X3.4  © 2001-2013 Comsenz Inc.