[剧情片] 倩影伊人/她只是一道掠影 Shes.Just.A.Shadow.2019.1080p.WEB-DL.DD5.1.H264-FGT 4.57GB

[复制链接]
蓝鸟VIP会员 永久VIP 发表于 7 天前 | 显示全部楼层 |阅读模式 打印 上一主题 下一主题

马上注册,轻松下载,海量资源,让你轻松玩转社区。

您需要 登录 才可以下载或查看,没有帐号?立即注册

x


译  名 倩影伊人 / 她只是一道掠影 / 形影佳人
片  名 She"s Just a Shadow
年  代 2018
产  地 美国
类  别 剧情 / 犯罪
语  言 英语
IMDb评分  3.4/10 from 18 users
IMDb链接  http://www.imdb.com/title/tt6019394
豆瓣评分 0/10 from 0 users
豆瓣链接 https://movie.douban.com/subject/26865564/
导  演 亚当·舍曼 Adam Sherman
编  剧 亚当·舍曼 Adam Sherman
主  演 冈本多绪 Tao Okamoto
      安部春香 Haruka Abe


标  签 冈本多绪 | 日本 | 美国 | 犯罪 | 戛纳 | 剧情

简  介  

  日本超模冈本多绪、歌星安倍春香加盟亚当·舍曼新电影《她只是一道掠影》(She’s Just A Shadow,暂译)。影片讲述了东京地下黑帮的故事,一个女性为主的犯罪团伙卷入了一场混乱的枪战……这是导演亚当·舍曼的第三部影片,电影充满了日本元素。具体上映日期还未确定。



该资源信息参数
  1. Video
  2. ID                                       : 1
  3. Format                                   : AVC
  4. Format/Info                              : Advanced Video Codec
  5. Format profile                           : <a href="/cdn-cgi/l/email-protection" class="__cf_email__" data-cfemail="f7bf9e909fb7bbc3">[email protected]</a>
  6. Format settings                          : CABAC / 4 Ref Frames
  7. Format settings, CABAC                   : Yes
  8. Format settings, Reference frames        : 4 frames
  9. Codec ID                                 : V_MPEG4/ISO/AVC
  10. Duration                                 : 1 h 57 min
  11. Bit rate                                 : 5 194 kb/s
  12. Width                                    : 1 920 pixels
  13. Height                                   : 1 080 pixels
  14. Display aspect ratio                     : 16:9
  15. Frame rate mode                          : Constant
  16. Frame rate                               : 23.976 (23976/1000) FPS
  17. Color space                              : YUV
  18. Chroma subsampling                       : 4:2:0
  19. Bit depth                                : 8 bits
  20. Scan type                                : Progressive
  21. Bits/(Pixel*Frame)                       : 0.104
  22. Stream size                              : 4.25 GiB (93%)
  23. Title                                    : Shes.Just.A.Shadow.2019.1080p.WEB-DL.DD5.1.H264-FGT
  24. Language                                 : English
  25. Default                                  : Yes
  26. Forced                                   : No
  27. Color range                              : Limited
  28. Color primaries                          : BT.709
  29. Transfer characteristics                 : BT.709
  30. Matrix coefficients                      : BT.709

  31. Audio
  32. ID                                       : 2
  33. Format                                   : AC-3
  34. Format/Info                              : Audio Coding 3
  35. Commercial name                          : Dolby Digital
  36. Codec ID                                 : A_AC3
  37. Duration                                 : 1 h 57 min
  38. Bit rate mode                            : Constant
  39. Bit rate                                 : 384 kb/s
  40. Channel(s)                               : 6 channels
  41. Channel layout                           : L R C LFE Ls Rs
  42. Sampling rate                            : 48.0 kHz
  43. Frame rate                               : 31.250 FPS (1536 SPF)
  44. Bit depth                                : 16 bits
  45. Compression mode                         : Lossy
  46. Stream size                              : 322 MiB (7%)
  47. Title                                    : Shes.Just.A.Shadow.2019.1080p.WEB-DL.DD5.1.H264-FGT
  48. Language                                 : English
  49. Service kind                             : Complete Main
  50. Default                                  : Yes
  51. Forced                                   : No

  52. Text
  53. ID                                       : 3
  54. Format                                   : UTF-8
  55. Codec ID                                 : S_TEXT/UTF8
  56. Codec ID/Info                            : UTF-8 Plain Text
  57. Duration                                 : 1 h 56 min
  58. Bit rate                                 : 63 b/s
  59. Count of elements                        : 1428
  60. Stream size                              : 54.1 KiB (0%)
  61. Language                                 : English
  62. Default                                  : Yes
  63. Forced                                   : No

  64. Menu
  65. 00:00:00.000                             : en:1
  66. 00:11:09.544                             : en:2
  67. 00:22:20.214                             : en:3
  68. 00:31:38.855                             : en:4
  69. 00:43:49.961                             : en:5
  70. 00:55:33.039                             : en:6
  71. 01:05:48.195                             : en:7
  72. 01:16:06.396                             : en:8
  73. 01:27:53.059                             : en:9
  74. 01:37:29.008                             : en:10
  75. 01:52:58.770                             : en:11
复制代码


精彩剧照




蓝光高清网提示您 点击下方附件名称 马上开始下载



温馨提示:
本站资源优先使用迅雷下载,迅雷会员下载,速度基本可以跑满宽带
如果遇到无资源或者版权问题无法下载,推荐使用115网盘离线下载(点击查看115网盘离线下载教程


  • 该资源需要您回复以后 刷新网页进行下载操作

  • 1、Shes.Just.A.Shadow.2019.1080p.WEB-DL.DD5.1.H264-FGT.torrent 46KB 已下载 0 次

加入蓝光高清网VIP会员  无限制下载本站所有资源---点此加入

资源下载、资源播放、字幕使用、无法下载等常见问题---点这里

回复

使用道具 举报

懒得打字嘛,点击右侧快捷回复
高级模式
B Color Image Link Quote Code Smilies 上传

本版积分规则

关注0

粉丝0

帖子43689

发布主题
最新电影 论坛
广告位

Archiver手机版蓝光高清网 ( 渝ICP备18006373号-2 )|网站地图

Powered by Discuz! X3.4  © 2001-2013 Comsenz Inc.