[喜剧片] 糖心爹地/皮条客老爸 Papi.Chulo.2018.1080p.WEB-DL.DD5.1.H264-FGT 3.41GB

[复制链接]
蓝鸟VIP会员 永久VIP 发表于 2019-9-11 22:00:08 | 显示全部楼层 |阅读模式 打印 上一主题 下一主题

马上注册,轻松下载,海量资源,让你轻松玩转社区。

您需要 登录 才可以下载或查看,没有帐号?立即注册

x


译  名 糖心爹地 / 皮条客老爸 / 美男遇上油漆叔
片  名 Papi Chulo
年  代 2018
产  地 爱尔兰 / 英国
类  别 喜剧 / 同性
语  言 英语
上映日期 2018-09-08(多伦多电影节) / 2019-06-07(美国)
IMDb评分  6.5/10 from 253 users
IMDb链接  http://www.imdb.com/title/tt8228538
豆瓣评分 7.1/10 from 219 users
豆瓣链接 https://movie.douban.com/subject/30143720/
片  长 98分钟
导  演 约翰·巴特勒 John Butler
编  剧 约翰·巴特勒 John Butler
主  演 马特·波莫 Matt Bomer
      Alejandro Pati?o
      Elena Campbell-Martinez
      Shaughn Buchholz


标  签 同性 | 马特·波莫 | 美国 | LGBT | 2018 | 剧情 | LGBTQ | 美国电影

简  介  

  马特·波莫加盟新片[皮条客老爸](Papi Chulo,暂译)。该片由约翰·巴特勒([帅气的恶魔])执导。影片故事讲述孤寂的电视天气预报员(马特·波莫饰)和一个中年拉丁裔民工(亚历杭德罗·帕雷尼奥饰)之间不同寻常的友情展开。该片将在即将举行的柏林电影节寻找买家。



该资源信息参数
  1. Video
  2. ID                                       : 1
  3. Format                                   : AVC
  4. Format/Info                              : Advanced Video Codec
  5. Format profile                           : <a href="/cdn-cgi/l/email-protection" class="__cf_email__" data-cfemail="0b43626c634b473f">[email protected]</a>
  6. Format settings                          : CABAC / 5 Ref Frames
  7. Format settings, CABAC                   : Yes
  8. Format settings, Reference frames        : 5 frames
  9. Codec ID                                 : V_MPEG4/ISO/AVC
  10. Duration                                 : 1 h 38 min
  11. Bit rate                                 : 4 557 kb/s
  12. Width                                    : 1 916 pixels
  13. Height                                   : 796 pixels
  14. Display aspect ratio                     : 2.40:1
  15. Frame rate mode                          : Constant
  16. Frame rate                               : 24.000 FPS
  17. Color space                              : YUV
  18. Chroma subsampling                       : 4:2:0
  19. Bit depth                                : 8 bits
  20. Scan type                                : Progressive
  21. Bits/(Pixel*Frame)                       : 0.124
  22. Stream size                              : 3.14 GiB (92%)
  23. Title                                    : Papi.Chulo.2018.1080p.WEB-DL.DD5.1.H264-FGT
  24. Language                                 : English
  25. Default                                  : Yes
  26. Forced                                   : No
  27. Color range                              : Limited
  28. Color primaries                          : BT.709
  29. Transfer characteristics                 : BT.709
  30. Matrix coefficients                      : BT.709

  31. Audio
  32. ID                                       : 2
  33. Format                                   : AC-3
  34. Format/Info                              : Audio Coding 3
  35. Commercial name                          : Dolby Digital
  36. Codec ID                                 : A_AC3
  37. Duration                                 : 1 h 38 min
  38. Bit rate mode                            : Constant
  39. Bit rate                                 : 384 kb/s
  40. Channel(s)                               : 6 channels
  41. Channel layout                           : L R C LFE Ls Rs
  42. Sampling rate                            : 48.0 kHz
  43. Frame rate                               : 31.250 FPS (1536 SPF)
  44. Bit depth                                : 16 bits
  45. Compression mode                         : Lossy
  46. Stream size                              : 271 MiB (8%)
  47. Title                                    : Papi.Chulo.2018.1080p.WEB-DL.DD5.1.H264-FGT
  48. Language                                 : English
  49. Service kind                             : Complete Main
  50. Default                                  : Yes
  51. Forced                                   : No

  52. Menu
  53. 00:00:00.000                             : en:Chapter 1
  54. 00:20:36.708                             : en:Chapter 2
  55. 00:39:26.958                             : en:Chapter 3
  56. 00:59:46.373                             : en:Chapter 4
  57. 01:17:31.831                             : en:Chapter 5
  58. 01:35:23.456                             : en:Chapter 6
复制代码


精彩剧照




蓝光高清网提示您 点击下方附件名称 马上开始下载



温馨提示:
本站资源优先使用迅雷下载,迅雷会员下载,速度基本可以跑满宽带
如果遇到无资源或者版权问题无法下载,推荐使用115网盘离线下载(点击查看115网盘离线下载教程


  • 该资源需要您回复以后 刷新网页进行下载操作

  • 1、Papi.Chulo.2018.1080p.WEB-DL.DD5.1.H264-FGT.torrent 35KB 已下载 0 次

加入蓝光高清网VIP会员  无限制下载本站所有资源---点此加入

资源下载、资源播放、字幕使用、无法下载等常见问题---点这里

回复

使用道具 举报

精彩评论1

tlwy 发表于 2019-9-11 22:06:03 | 显示全部楼层
谢谢  下载了  3Q

加入蓝光高清网VIP会员  无限制下载本站所有资源---点此加入

资源下载、资源播放、字幕使用、无法下载等常见问题---点这里

回复

使用道具 举报

懒得打字嘛,点击右侧快捷回复
高级模式
B Color Image Link Quote Code Smilies 上传

本版积分规则

关注0

粉丝0

帖子45753

发布主题
最新电影 论坛
广告位

Archiver手机版蓝光高清网 ( 渝ICP备18006373号-2 )|网站地图

Powered by Discuz! X3.4  © 2001-2013 Comsenz Inc.