[科幻片] 仇外心理 Xenophobia.2019.1080p.WEB-DL.DD5.1.H264-FGT 2.87GB

[复制链接]
蓝鸟 发表于 2019-9-12 00:52:08 | 显示全部楼层 |阅读模式 打印 上一主题 下一主题
仇外心理 Xenophobia.2019.1080p.WEB-DL.DD5.1.H264-FGT 2.87GB-1.jpg

译  名 仇外心理
片  名 Xenophobia
年  代 2019
产  地 美国
类  别 科幻
语  言 英语
上映日期 2019-08-06(美国)
IMDb评分  3.2/10 from 43 users
IMDb链接  http://www.imdb.com/title/tt8571404
豆瓣评分 0/10 from 0 users
豆瓣链接 https://movie.douban.com/subject/34788063/
导  演 乔·卡斯特罗 Joe Castro / 托马斯·丘吉尔 Thomas J. Churchill
编  剧 乔·卡斯特罗 Joe Castro / 托马斯·丘吉尔 Thomas J. Churchill
主  演 Kristen Renton
       Manu Intiraymi
       布琳克·史蒂文斯 Brinke Stevens
       瑞秋·斯特林 Rachel Sterling
       Angie Stevenson
       Kelly Lynn Reiter
       艾伦·马克森 Alan Maxson
       Nick Principe
       Keavy Bradley


简  介  

  Six complete strangers recall the details of their individual experiences with alien forces-sharing the terrifying stories of their abductions and possessions.


该资源信息参数
  1. Video
  2. ID                                       : 1
  3. Format                                   : AVC
  4. Format/Info                              : Advanced Video Codec
  5. Format profile                           : <a href="/cdn-cgi/l/email-protection" class="__cf_email__" data-cfemail="763e1f111e363a42">[email protected]</a>
  6. Format settings                          : CABAC / 5 Ref Frames
  7. Format settings, CABAC                   : Yes
  8. Format settings, Reference frames        : 5 frames
  9. Codec ID                                 : V_MPEG4/ISO/AVC
  10. Duration                                 : 1 h 22 min
  11. Bit rate                                 : 4 614 kb/s
  12. Width                                    : 1 920 pixels
  13. Height                                   : 802 pixels
  14. Display aspect ratio                     : 2.40:1
  15. Frame rate mode                          : Constant
  16. Frame rate                               : 23.976 FPS
  17. Color space                              : YUV
  18. Chroma subsampling                       : 4:2:0
  19. Bit depth                                : 8 bits
  20. Scan type                                : Progressive
  21. Bits/(Pixel*Frame)                       : 0.125
  22. Stream size                              : 2.65 GiB (92%)
  23. Title                                    : Xenophobia.2019.1080p.WEB-DL.DD5.1.H264-FGT
  24. Language                                 : English
  25. Default                                  : Yes
  26. Forced                                   : No
  27. Color range                              : Limited
  28. Color primaries                          : BT.709
  29. Transfer characteristics                 : BT.709
  30. Matrix coefficients                      : BT.709

  31. Audio
  32. ID                                       : 2
  33. Format                                   : AC-3
  34. Format/Info                              : Audio Coding 3
  35. Commercial name                          : Dolby Digital
  36. Codec ID                                 : A_AC3
  37. Duration                                 : 1 h 22 min
  38. Bit rate mode                            : Constant
  39. Bit rate                                 : 384 kb/s
  40. Channel(s)                               : 6 channels
  41. Channel layout                           : L R C LFE Ls Rs
  42. Sampling rate                            : 48.0 kHz
  43. Frame rate                               : 31.250 FPS (1536 SPF)
  44. Bit depth                                : 16 bits
  45. Compression mode                         : Lossy
  46. Stream size                              : 226 MiB (8%)
  47. Title                                    : Xenophobia.2019.1080p.WEB-DL.DD5.1.H264-FGT
  48. Language                                 : English
  49. Service kind                             : Complete Main
  50. Default                                  : Yes
  51. Forced                                   : No

  52. Text
  53. ID                                       : 3
  54. Format                                   : UTF-8
  55. Codec ID                                 : S_TEXT/UTF8
  56. Codec ID/Info                            : UTF-8 Plain Text
  57. Duration                                 : 1 h 21 min
  58. Bit rate                                 : 62 b/s
  59. Count of elements                        : 995
  60. Stream size                              : 37.3 KiB (0%)
  61. Language                                 : English
  62. Default                                  : Yes
  63. Forced                                   : No

  64. Menu
  65. 00:00:00.000                             : en:1
  66. 00:05:06.222                             : en:2
  67. 00:10:44.559                             : en:3
  68. 00:17:31.131                             : en:4
  69. 00:23:03.545                             : en:5
  70. 00:27:47.077                             : en:6
  71. 00:33:54.318                             : en:7
  72. 00:37:19.981                             : en:8
  73. 00:43:39.734                             : en:9
  74. 00:48:32.234                             : en:10
  75. 00:54:57.326                             : en:11
  76. 01:01:38.018                             : en:12
  77. 01:08:28.552                             : en:13
  78. 01:10:10.527                             : en:14
  79. 01:12:28.373                             : en:15
  80. 01:16:07.215                             : en:16
复制代码


精彩剧照

仇外心理 Xenophobia.2019.1080p.WEB-DL.DD5.1.H264-FGT 2.87GB-2.png 仇外心理 Xenophobia.2019.1080p.WEB-DL.DD5.1.H264-FGT 2.87GB-3.png 仇外心理 Xenophobia.2019.1080p.WEB-DL.DD5.1.H264-FGT 2.87GB-4.png


蓝光高清网提示您 点击下方附件名称 马上开始下载

Xenophobia.2019.1080p.WEB-DL.DD5.1.H264-FGT.torrent 
         (29.22 KB    阅读权限: 0)
加入蓝光高清网VIP会员  无限制下载本站所有资源---点这里

资源下载、资源播放、字幕使用、无法下载等常见问题---点这里
回复

使用道具 举报

您需要登录后才可以回帖 登录 | 立即注册

本版积分规则

关注0

粉丝1

帖子86440

发布主题
最新电影 论坛
本期活动
联系我们
点击这里联系客服

服务时间:
周一到周日8:00-23:30

  • 打开微信扫一扫
    关注公众号

  • 手机QQ扫一扫
    添加客服

手机版蓝光高清网 |网站地图

Powered by Discuz! X3.4 Licensed  © 2001-2013 Comsenz Inc.