[科幻片] 仇外心理 Xenophobia.2019.1080p.AMZN.WEBRip.DDP5.1.x264-NTG 5.58GB

[复制链接]
蓝鸟 发表于 2019-9-12 01:09:33 | 显示全部楼层 |阅读模式 打印 上一主题 下一主题
仇外心理 Xenophobia.2019.1080p.AMZN.WEBRip.DDP5.1.x264-NTG 5.58GB-1.jpg

译  名 仇外心理
片  名 Xenophobia
年  代 2019
产  地 美国
类  别 科幻
语  言 英语
上映日期 2019-08-06(美国)
IMDb评分  3.2/10 from 43 users
IMDb链接  http://www.imdb.com/title/tt8571404
豆瓣评分 0/10 from 0 users
豆瓣链接 https://movie.douban.com/subject/34788063/
导  演 乔·卡斯特罗 Joe Castro / 托马斯·丘吉尔 Thomas J. Churchill
编  剧 乔·卡斯特罗 Joe Castro / 托马斯·丘吉尔 Thomas J. Churchill
主  演 Kristen Renton
       Manu Intiraymi
       布琳克·史蒂文斯 Brinke Stevens
       瑞秋·斯特林 Rachel Sterling
       Angie Stevenson
       Kelly Lynn Reiter
       艾伦·马克森 Alan Maxson
       Nick Principe
       Keavy Bradley


简  介  

  Six complete strangers recall the details of their individual experiences with alien forces-sharing the terrifying stories of their abductions and possessions.


该资源信息参数
  1. Video
  2. ID                                       : 1
  3. Format                                   : AVC
  4. Format/Info                              : Advanced Video Codec
  5. Format profile                           : <a href="/cdn-cgi/l/email-protection" class="__cf_email__" data-cfemail="f8b0919f90b8b4cc">[email protected]</a>
  6. Format settings                          : CABAC / 4 Ref Frames
  7. Format settings, CABAC                   : Yes
  8. Format settings, Reference frames        : 4 frames
  9. Codec ID                                 : V_MPEG4/ISO/AVC
  10. Duration                                 : 1 h 22 min
  11. Bit rate mode                            : Constant
  12. Bit rate                                 : 9 077 kb/s
  13. Nominal bit rate                         : 10 000 kb/s
  14. Width                                    : 1 920 pixels
  15. Height                                   : 816 pixels
  16. Display aspect ratio                     : 2.35:1
  17. Frame rate mode                          : Constant
  18. Frame rate                               : 23.976 (24000/1001) FPS
  19. Color space                              : YUV
  20. Chroma subsampling                       : 4:2:0
  21. Bit depth                                : 8 bits
  22. Scan type                                : Progressive
  23. Bits/(Pixel*Frame)                       : 0.242
  24. Stream size                              : 5.21 GiB (93%)
  25. Default                                  : Yes
  26. Forced                                   : No
  27. Color range                              : Limited
  28. Color primaries                          : BT.709
  29. Transfer characteristics                 : BT.709
  30. Matrix coefficients                      : BT.709

  31. Audio
  32. ID                                       : 2
  33. Format                                   : E-AC-3
  34. Format/Info                              : Enhanced AC-3
  35. Commercial name                          : Dolby Digital Plus
  36. Codec ID                                 : A_EAC3
  37. Duration                                 : 1 h 22 min
  38. Bit rate mode                            : Constant
  39. Bit rate                                 : 640 kb/s
  40. Channel(s)                               : 6 channels
  41. Channel layout                           : L R C LFE Ls Rs
  42. Sampling rate                            : 48.0 kHz
  43. Frame rate                               : 31.250 FPS (1536 SPF)
  44. Compression mode                         : Lossy
  45. Stream size                              : 376 MiB (7%)
  46. Language                                 : English
  47. Service kind                             : Complete Main
  48. Default                                  : Yes
  49. Forced                                   : No

  50. Text #1
  51. ID                                       : 3
  52. Format                                   : UTF-8
  53. Codec ID                                 : S_TEXT/UTF8
  54. Codec ID/Info                            : UTF-8 Plain Text
  55. Duration                                 : 1 h 20 min
  56. Bit rate                                 : 43 b/s
  57. Count of elements                        : 824
  58. Stream size                              : 25.8 KiB (0%)
  59. Language                                 : English
  60. Default                                  : No
  61. Forced                                   : No

  62. Text #2
  63. ID                                       : 4
  64. Format                                   : UTF-8
  65. Codec ID                                 : S_TEXT/UTF8
  66. Codec ID/Info                            : UTF-8 Plain Text
  67. Duration                                 : 1 h 21 min
  68. Bit rate                                 : 48 b/s
  69. Count of elements                        : 995
  70. Stream size                              : 29.1 KiB (0%)
  71. Title                                    : SDH
  72. Language                                 : English
  73. Default                                  : No
  74. Forced                                   : No
复制代码


精彩剧照

仇外心理 Xenophobia.2019.1080p.AMZN.WEBRip.DDP5.1.x264-NTG 5.58GB-2.png 仇外心理 Xenophobia.2019.1080p.AMZN.WEBRip.DDP5.1.x264-NTG 5.58GB-3.png 仇外心理 Xenophobia.2019.1080p.AMZN.WEBRip.DDP5.1.x264-NTG 5.58GB-4.png


蓝光高清网提示您 点击下方附件名称 马上开始下载

Xenophobia.2019.1080p.AMZN.WEBRip.DDP5.1.x264-NTG.torrent 
         (28.43 KB    阅读权限: 0)
加入蓝光高清网VIP会员  无限制下载本站所有资源---点这里

资源下载、资源播放、字幕使用、无法下载等常见问题---点这里
回复

使用道具 举报

您需要登录后才可以回帖 登录 | 立即注册

本版积分规则

关注0

粉丝1

帖子86459

发布主题
最新电影 论坛
本期活动
联系我们
点击这里联系客服

服务时间:
周一到周日8:00-23:30

  • 打开微信扫一扫
    关注公众号

  • 手机QQ扫一扫
    添加客服

手机版蓝光高清网 |网站地图

Powered by Discuz! X3.4 Licensed  © 2001-2013 Comsenz Inc.