[剧情片] 谷粒 Grain.AKA.Bugday.2017.1080p.AMZN.WEBRip.DDP5.1.x264-Cinefeel 8.94GB

[复制链接]
蓝鸟VIP会员 永久VIP 发表于 7 天前 | 显示全部楼层 |阅读模式 打印 上一主题 下一主题

马上注册,轻松下载,海量资源,让你轻松玩转社区。

您需要 登录 才可以下载或查看,没有帐号?立即注册

x


译  名 谷粒 / Grain / 如果麦子消失(台)
片  名 Bu?day
年  代 2017
产  地 土耳其 / 德国 / 法国 / 瑞典 / 卡塔尔
类  别 剧情
语  言 英语
上映日期 2017-08-12(萨拉热窝影展) / 2017-11-24(土耳其)
IMDb评分  6.1/10 from 1021 users
IMDb链接  http://www.imdb.com/title/tt4073682
豆瓣评分 6.5/10 from 428 users
豆瓣链接 https://movie.douban.com/subject/26314630/
片  长 123分钟
导  演 赛米·卡普拉诺格鲁 Semih Kaplanoglu
编  剧 赛米·卡普拉诺格鲁 Semih Kaplanoglu / Leyla Ipekci
主  演 让-马克·巴尔 Jean-Marc Barr
       Ermin Bravo
       吉里格力·多布金 Grigoriy Dobrygin
       克里斯蒂娜·弗罗托 Cristina Flutur
       卢巴纳·阿兹巴尔 Lubna Azabal
       米拉·伯宁 Mila B?hning
       山内春彦 Hal Yamanouchi
       贾勒斯·J·默茨 Jarreth J. Merz


标  签 土耳其 | 科幻 | 2017 | 剧情 | 灾难 | 德国 | 瑞典 | 法国

简  介  

  故事发生在遥远的未来,彼时,由于环境不断地遭到破坏,已经到了无法修复的地步,地球上的环境早已经不再适宜人类居住了。充满了毒性的突然令农作物无法种植,人类面临着严重的饥荒危机。艾洛尔(让-马克·巴尔 Jean-Marc Barr 饰)是受雇于高科技公司的科学家,肩负着制造种子的重 任。当他得知一个名为杰米尔(厄明?布拉沃 Ermin Bravo 饰)的遗传学家能够研究出健康的种子后,他决定跋山涉水的去找他。
  前往杰米尔处的路程非常遥远,这趟旅途充满了艰险,一路上,艾洛尔遇见了数不清的危险和意外,屡次遭受生命的威胁,最终,他成功的找到了杰米尔,也明白了人类如今的境地实在自食其果。

获奖情况  

  第30届东京国际电影节(2017)
  主竞赛单元 赛米·卡普拉诺格鲁


该资源信息参数
  1. Video
  2. ID                                       : 1
  3. Format                                   : AVC
  4. Format/Info                              : Advanced Video Codec
  5. Format profile                           : <a href="/cdn-cgi/l/email-protection" class="__cf_email__" data-cfemail="80c8e9e7e8c0ccb4">[email protected]</a>
  6. Format settings                          : CABAC / 4 Ref Frames
  7. Format settings, CABAC                   : Yes
  8. Format settings, Reference frames        : 4 frames
  9. Codec ID                                 : V_MPEG4/ISO/AVC
  10. Duration                                 : 2 h 8 min
  11. Bit rate mode                            : Constant
  12. Bit rate                                 : 10 000 kb/s
  13. Width                                    : 1 920 pixels
  14. Height                                   : 800 pixels
  15. Display aspect ratio                     : 2.40:1
  16. Frame rate mode                          : Constant
  17. Frame rate                               : 24.000 FPS
  18. Color space                              : YUV
  19. Chroma subsampling                       : 4:2:0
  20. Bit depth                                : 8 bits
  21. Scan type                                : Progressive
  22. Bits/(Pixel*Frame)                       : 0.271
  23. Stream size                              : 8.71 GiB (97%)
  24. Language                                 : English
  25. Default                                  : Yes
  26. Forced                                   : No
  27. Color range                              : Limited
  28. Color primaries                          : BT.709
  29. Transfer characteristics                 : BT.709
  30. Matrix coefficients                      : BT.709

  31. Audio
  32. ID                                       : 2
  33. Format                                   : E-AC-3
  34. Format/Info                              : Enhanced AC-3
  35. Commercial name                          : Dolby Digital Plus
  36. Codec ID                                 : A_EAC3
  37. Duration                                 : 2 h 8 min
  38. Bit rate mode                            : Constant
  39. Bit rate                                 : 256 kb/s
  40. Channel(s)                               : 6 channels
  41. Channel layout                           : L R C LFE Ls Rs
  42. Sampling rate                            : 48.0 kHz
  43. Frame rate                               : 31.250 FPS (1536 SPF)
  44. Compression mode                         : Lossy
  45. Stream size                              : 235 MiB (3%)
  46. Language                                 : English
  47. Service kind                             : Complete Main
  48. Default                                  : Yes
  49. Forced                                   : No

  50. Text #1
  51. ID                                       : 3
  52. Format                                   : UTF-8
  53. Codec ID                                 : S_TEXT/UTF8
  54. Codec ID/Info                            : UTF-8 Plain Text
  55. Duration                                 : 2 min 46 s
  56. Bit rate                                 : 8 b/s
  57. Count of elements                        : 8
  58. Stream size                              : 187 Bytes (0%)
  59. Language                                 : English
  60. Default                                  : No
  61. Forced                                   : No

  62. Text #2
  63. ID                                       : 4
  64. Format                                   : UTF-8
  65. Codec ID                                 : S_TEXT/UTF8
  66. Codec ID/Info                            : UTF-8 Plain Text
  67. Duration                                 : 2 h 4 min
  68. Bit rate                                 : 25 b/s
  69. Count of elements                        : 725
  70. Stream size                              : 22.8 KiB (0%)
  71. Language                                 : German
  72. Default                                  : No
  73. Forced                                   : No
复制代码


精彩剧照




蓝光高清网提示您 点击下方附件名称 马上开始下载



温馨提示:
本站资源优先使用迅雷下载,迅雷会员下载,速度基本可以跑满宽带
如果遇到无资源或者版权问题无法下载,推荐使用115网盘离线下载(点击查看115网盘离线下载教程


  • 该资源需要您回复以后 刷新网页进行下载操作

  • 1、Grain.AKA.Bugday.2017.1080p.AMZN.WEBRip.DDP5.1.x264-Cinefeel.torrent 45KB 已下载 0 次

加入蓝光高清网VIP会员  无限制下载本站所有资源---点此加入

资源下载、资源播放、字幕使用、无法下载等常见问题---点这里

回复

使用道具 举报

懒得打字嘛,点击右侧快捷回复
高级模式
B Color Image Link Quote Code Smilies 上传

本版积分规则

关注0

粉丝0

帖子45744

发布主题
最新电影 论坛
广告位

Archiver手机版蓝光高清网 ( 渝ICP备18006373号-2 )|网站地图

Powered by Discuz! X3.4  © 2001-2013 Comsenz Inc.