[剧情片] 我钟情的人/欲擒故纵 The.Object.Of.My.Affection.1998.1080p.AMZN.WEBRip.DDP5.1.x264-SiGMA 10.56GB

[复制链接]
蓝鸟VIP会员 永久VIP 发表于 7 天前 | 显示全部楼层 |阅读模式 打印 上一主题 下一主题

马上注册,轻松下载,海量资源,让你轻松玩转社区。

您需要 登录 才可以下载或查看,没有帐号?立即注册

x


译  名 我钟情的人 / 欲擒故纵(台) / 缘来恋不到
片  名 The Object of My Affection
年  代 1998
产  地 美国
类  别 剧情 / 喜剧 / 爱情
语  言 英语
上映日期 1998-04-17
IMDb评分  6.0/10 from 17691 users
IMDb链接  http://www.imdb.com/title/tt0120772
豆瓣评分 7.5/10 from 1792 users
豆瓣链接 https://movie.douban.com/subject/1300083/
片  长 111 分钟
导  演 Nicholas Hytner
编  剧 Wendy Wasserstein
主  演 保罗·路德 Paul Rudd
       Kali Rocha
       詹妮弗·安妮斯顿 Jennifer Aniston
       Lena Cardwell
       Natalie B. Kikkenborg
       Lauren Pratt
       海顿·潘妮蒂尔 Hayden Panettiere
       Lauren Chen
       连姆·艾肯 Liam Aiken
       阿伦·阿尔达 Alan Alda
       艾莉森·珍妮 Allison Janney
       蒂姆·达利 Tim Daly
       Janet Zarish
       Ellen Tobie
       Virl Andrick


标  签 JenniferAniston | 美国 | 爱情 | PaulRudd | 同志 | 美国电影 | 1998 | 剧情

简  介  

  小学老师乔治(Paul Rudd饰)与社工妮娜(Jennifer Aniston饰)在一次社交晚宴上认识,乔治从妮娜那里惊悉自己被同性恋伴侣抛弃的消息,伤心不已。然而除却感情上的打击,他还不得不从同住的家中搬走,一时间毫无着落的他狼狈万分。好心的妮娜让乔治在自己的公寓中暂住,渐渐地,二人成为无所不谈的好朋友。妮娜也正发现自己与男友原来不相衬,尽管已经怀孕,还是果断地分手。妮娜听说乔治中学时曾经与女孩有过性关系后,也想亲身上阵勾引。谁知乔治的男友回头,打断了这一段鸳梦。
  然而乔治还是妮娜最理想的、养育自己孩子的父亲。


该资源信息参数
  1. Video
  2. ID                                       : 1
  3. Format                                   : AVC
  4. Format/Info                              : Advanced Video Codec
  5. Format profile                           : <a href="/cdn-cgi/l/email-protection" class="__cf_email__" data-cfemail="d59dbcb2bd9599e1">[email protected]</a>
  6. Format settings                          : CABAC / 4 Ref Frames
  7. Format settings, CABAC                   : Yes
  8. Format settings, Reference frames        : 4 frames
  9. Codec ID                                 : V_MPEG4/ISO/AVC
  10. Duration                                 : 1 h 51 min
  11. Bit rate                                 : 12.9 Mb/s
  12. Width                                    : 1 920 pixels
  13. Height                                   : 1 040 pixels
  14. Display aspect ratio                     : 1.85:1
  15. Frame rate mode                          : Constant
  16. Frame rate                               : 23.976 (24000/1001) FPS
  17. Color space                              : YUV
  18. Chroma subsampling                       : 4:2:0
  19. Bit depth                                : 8 bits
  20. Scan type                                : Progressive
  21. Bits/(Pixel*Frame)                       : 0.269
  22. Stream size                              : 10.1 GiB (95%)
  23. Default                                  : Yes
  24. Forced                                   : No
  25. Color range                              : Limited
  26. Color primaries                          : BT.709
  27. Transfer characteristics                 : BT.709
  28. Matrix coefficients                      : BT.709

  29. Audio
  30. ID                                       : 2
  31. Format                                   : E-AC-3
  32. Format/Info                              : Enhanced AC-3
  33. Commercial name                          : Dolby Digital Plus
  34. Codec ID                                 : A_EAC3
  35. Duration                                 : 1 h 51 min
  36. Bit rate mode                            : Constant
  37. Bit rate                                 : 640 kb/s
  38. Channel(s)                               : 6 channels
  39. Channel layout                           : L R C LFE Ls Rs
  40. Sampling rate                            : 48.0 kHz
  41. Frame rate                               : 31.250 FPS (1536 SPF)
  42. Compression mode                         : Lossy
  43. Stream size                              : 511 MiB (5%)
  44. Language                                 : English
  45. Service kind                             : Complete Main
  46. Default                                  : Yes
  47. Forced                                   : No

  48. Text
  49. ID                                       : 3
  50. Format                                   : UTF-8
  51. Codec ID                                 : S_TEXT/UTF8
  52. Codec ID/Info                            : UTF-8 Plain Text
  53. Duration                                 : 1 h 51 min
  54. Bit rate                                 : 84 b/s
  55. Count of elements                        : 1820
  56. Stream size                              : 69.4 KiB (0%)
  57. Title                                    : English (SDH)
  58. Language                                 : English
  59. Default                                  : No
  60. Forced                                   : No
复制代码


精彩剧照




蓝光高清网提示您 点击下方附件名称 马上开始下载



温馨提示:
本站资源优先使用迅雷下载,迅雷会员下载,速度基本可以跑满宽带
如果遇到无资源或者版权问题无法下载,推荐使用115网盘离线下载(点击查看115网盘离线下载教程


  • 该资源需要您回复以后 刷新网页进行下载操作

  • 1、The.Object.Of.My.Affection.1998.1080p.AMZN.WEBRip.DDP5.1.x264-SiGMA.torrent 53KB 已下载 0 次

加入蓝光高清网VIP会员  无限制下载本站所有资源---点此加入

资源下载、资源播放、字幕使用、无法下载等常见问题---点这里

回复

使用道具 举报

懒得打字嘛,点击右侧快捷回复
高级模式
B Color Image Link Quote Code Smilies 上传

本版积分规则

关注0

粉丝0

帖子45743

发布主题
最新电影 论坛
广告位

Archiver手机版蓝光高清网 ( 渝ICP备18006373号-2 )|网站地图

Powered by Discuz! X3.4  © 2001-2013 Comsenz Inc.