[动作片] 豺狼陷阱/委以重任 The.Assignment.1997.1080p.WEBRip.x264-RARBG 2.27GB

[复制链接]
蓝鸟VIP会员 永久VIP 发表于 7 天前 | 显示全部楼层 |阅读模式 打印 上一主题 下一主题

马上注册,轻松下载,海量资源,让你轻松玩转社区。

您需要 登录 才可以下载或查看,没有帐号?立即注册

x


译  名 豺狼陷阱 / 委以重任 / 魔鬼谍报员
片  名 The Assignment
年  代 1997
产  地 加拿大
类  别 动作 / 惊悚 / 犯罪
语  言 英语
上映日期 1997-09-12
IMDb评分  6.9/10 from 8368 users
IMDb链接  http://www.imdb.com/title/tt0118647
豆瓣评分 7.3/10 from 325 users
豆瓣链接 https://movie.douban.com/subject/1292558/
片  长 Spain: 111 分钟
导  演 克里斯琴 杜高依 (Christian Duguay (I))
编  剧 Dan Gordon (III) / Sabi H. Shabtai
主  演 Donald Sutherland
       Ben Kingsley
       Aidan Quinn


标  签 间谍 | 动作 | 美国 | 美国电影 | 1997 | 经典 | 犯罪 | 加拿大

简  介  

  影片开头是胡狼卡洛斯拿烟头烫死一只蛛网上的蜘蛛。这是部1994年拍的电影,是追捕"胡狼卡洛斯"的故事。胡狼卡洛斯是拉登之前最著名的恐怖分子,几乎是所有西方国家的情报机构重点关照的对象。现在关于他的资料能找到的很少,就象一个过气明星一样被人遗忘了。
  故事是在冷战时期,一个美国海军军官因为长的酷似胡狼卡洛斯,所以被中央情报局选中追捕胡狼。看电是这个被选中的海军军官为了使自己看起来象恐怖分子,进行了严格的训练,模仿卡洛斯的各种特点。最终训练合格,然而性格大变,由以前的温文尔雅变的脾气暴躁。
  影片花了很大时间描述假胡狼怎样由一个普通人训练成一个间谍,看的出是要表现一个间谍是怎样炼成的,不光要进行各种训练,最重要的是心理的转变。那个中情局的官员为了抓胡狼卡洛斯几乎不择手段,甚至以拉米莱斯家人威胁他。他的做法和恐怖分子也差不多了,在情报行业,你了解的越多就会发现越多肮脏的角落。
  最后的镜头是隐姓埋名的假卡洛斯拿着烟头对着蛛网上的蜘蛛... ...


该资源信息参数
  1. Video
  2. ID                                       : 1
  3. Format                                   : AVC
  4. Format/Info                              : Advanced Video Codec
  5. Format profile                           : <a href="/cdn-cgi/l/email-protection" class="__cf_email__" data-cfemail="bef6d7d9d6fef28a908f">[email protected]</a>
  6. Format settings                          : CABAC / 4 Ref Frames
  7. Format settings, CABAC                   : Yes
  8. Format settings, Reference frames        : 4 frames
  9. Codec ID                                 : avc1
  10. Codec ID/Info                            : Advanced Video Coding
  11. Duration                                 : 1 h 58 min
  12. Bit rate                                 : 2 500 kb/s
  13. Width                                    : 1 920 pixels
  14. Height                                   : 1 080 pixels
  15. Display aspect ratio                     : 16:9
  16. Frame rate mode                          : Constant
  17. Frame rate                               : 23.976 (23976/1000) FPS
  18. Color space                              : YUV
  19. Chroma subsampling                       : 4:2:0
  20. Bit depth                                : 8 bits
  21. Scan type                                : Progressive
  22. Bits/(Pixel*Frame)                       : 0.050
  23. Stream size                              : 2.08 GiB (92%)
  24. Writing library                          : x264 core 152 r2851M ba24899
  25. Encoding settings                        : cabac=1 / ref=4 / deblock=1:-1:-1 / analyse=0x3:0x113 / me=umh / subme=9 / psy=1 / psy_rd=1.00:0.15 / mixed_ref=1 / me_range=24 / chroma_me=1 / trellis=2 / 8x8dct=1 / cqm=0 / deadzone=21,11 / fast_pskip=1 / chroma_qp_offset=-3 / threads=16 / lookahead_threads=4 / sliced_threads=0 / nr=0 / decimate=1 / interlaced=0 / bluray_compat=0 / constrained_intra=0 / bframes=3 / b_pyramid=2 / b_adapt=2 / b_bias=0 / direct=3 / weightb=1 / open_gop=0 / weightp=2 / keyint=250 / keyint_min=25 / scenecut=40 / intra_refresh=0 / rc_lookahead=50 / rc=2pass / mbtree=1 / bitrate=2500 / ratetol=1.0 / qcomp=0.60 / qpmin=0 / qpmax=69 / qpstep=4 / cplxblur=20.0 / qblur=0.5 / vbv_maxrate=31250 / vbv_bufsize=31250 / nal_hrd=none / filler=0 / ip_ratio=1.40 / aq=3:1.00
  26. Encoded date                             : UTC 2019-08-12 15:10:56
  27. Tagged date                              : UTC 2019-08-12 15:10:56
  28. Codec configuration box                  : avcC

  29. Audio
  30. ID                                       : 2
  31. Format                                   : AAC LC
  32. Format/Info                              : Advanced Audio Codec Low Complexity
  33. Codec ID                                 : mp4a-40-2
  34. Duration                                 : 1 h 58 min
  35. Duration_LastFrame                       : -11 ms
  36. Bit rate mode                            : Constant
  37. Bit rate                                 : 224 kb/s
  38. Channel(s)                               : 6 channels
  39. Channel layout                           : C L R Ls Rs LFE
  40. Sampling rate                            : 48.0 kHz
  41. Frame rate                               : 46.875 FPS (1024 SPF)
  42. Compression mode                         : Lossy
  43. Stream size                              : 191 MiB (8%)
  44. Language                                 : English
  45. Default                                  : Yes
  46. Alternate group                          : 1
  47. Encoded date                             : UTC 2019-08-12 15:10:56
  48. Tagged date                              : UTC 2019-08-12 15:10:56
复制代码


精彩剧照




蓝光高清网提示您 点击下方附件名称 马上开始下载



温馨提示:
本站资源优先使用迅雷下载,迅雷会员下载,速度基本可以跑满宽带
如果遇到无资源或者版权问题无法下载,推荐使用115网盘离线下载(点击查看115网盘离线下载教程


  • 该资源需要您回复以后 刷新网页进行下载操作

  • 1、The.Assignment.1997.1080p.WEBRip.x264-RARBG.torrent 23KB 已下载 0 次

加入蓝光高清网VIP会员  无限制下载本站所有资源---点此加入

资源下载、资源播放、字幕使用、无法下载等常见问题---点这里

回复

使用道具 举报

懒得打字嘛,点击右侧快捷回复
高级模式
B Color Image Link Quote Code Smilies 上传

本版积分规则

关注0

粉丝0

帖子45742

发布主题
最新电影 论坛
广告位

Archiver手机版蓝光高清网 ( 渝ICP备18006373号-2 )|网站地图

Powered by Discuz! X3.4  © 2001-2013 Comsenz Inc.