[恐怖片] 邪灵女巫 Wicked.Witches.2018.1080p.WEB-DL.DD2.0.H264-FGT 2.54GB

[复制链接]
蓝鸟VIP会员 永久VIP 发表于 7 天前 | 显示全部楼层 |阅读模式 打印 上一主题 下一主题

马上注册,轻松下载,海量资源,让你轻松玩转社区。

您需要 登录 才可以下载或查看,没有帐号?立即注册

x


译  名 邪灵女巫 / Wicked.Witches
片  名 The Witches of Dumpling Farm
年  代 2018
产  地 英国
类  别 恐怖
语  言 英语
上映日期 2018-10-26(Freak Show Horror Film Festival)
IMDb评分  5.0/10 from 25 users
IMDb链接  http://www.imdb.com/title/tt8983294
豆瓣评分 0/10 from 0 users
豆瓣链接 https://movie.douban.com/subject/34468174/
导  演 Martin J Pickering
编  剧 Mark Pickering / Martin J Pickering
主  演 Duncan Casey
       Justin Marosa
       Kitt Proudfoot


标  签 恐怖 | 3M稀影基地论坛 | 3M稀影基地

简  介  

  After being thrown out of his home by his wife for being promiscuous, Mark finds himself back at Dumpling Farm, a place of youthful memories and parties, but things aren"t quite right. His old buddy Ian, who has never left the place, is possessed by a group demonic, flesh eating Witches. Using Ian and his farm, these beautiful Witches honey trap Mark and his friends to consume their souls.


该资源信息参数
  1. Video
  2. ID                                       : 1
  3. Format                                   : AVC
  4. Format/Info                              : Advanced Video Codec
  5. Format profile                           : <a href="/cdn-cgi/l/email-protection" class="__cf_email__" data-cfemail="b6fedfd1def6fa82">[email protected]</a>
  6. Format settings                          : CABAC / 5 Ref Frames
  7. Format settings, CABAC                   : Yes
  8. Format settings, Reference frames        : 5 frames
  9. Codec ID                                 : V_MPEG4/ISO/AVC
  10. Duration                                 : 1 h 19 min
  11. Bit rate                                 : 4 388 kb/s
  12. Width                                    : 1 920 pixels
  13. Height                                   : 790 pixels
  14. Display aspect ratio                     : 2.40:1
  15. Frame rate mode                          : Constant
  16. Frame rate                               : 25.000 FPS
  17. Color space                              : YUV
  18. Chroma subsampling                       : 4:2:0
  19. Bit depth                                : 8 bits
  20. Scan type                                : Progressive
  21. Bits/(Pixel*Frame)                       : 0.116
  22. Stream size                              : 2.43 GiB (96%)
  23. Title                                    : Wicked.Witches.2018.1080p.WEB-DL.DD2.0.H264-FGT
  24. Language                                 : English
  25. Default                                  : Yes
  26. Forced                                   : No
  27. Color range                              : Limited
  28. Color primaries                          : BT.709
  29. Transfer characteristics                 : BT.709
  30. Matrix coefficients                      : BT.709

  31. Audio
  32. ID                                       : 2
  33. Format                                   : AC-3
  34. Format/Info                              : Audio Coding 3
  35. Commercial name                          : Dolby Digital
  36. Codec ID                                 : A_AC3
  37. Duration                                 : 1 h 19 min
  38. Bit rate mode                            : Constant
  39. Bit rate                                 : 192 kb/s
  40. Channel(s)                               : 2 channels
  41. Channel layout                           : L R
  42. Sampling rate                            : 48.0 kHz
  43. Frame rate                               : 31.250 FPS (1536 SPF)
  44. Bit depth                                : 16 bits
  45. Compression mode                         : Lossy
  46. Stream size                              : 109 MiB (4%)
  47. Title                                    : Wicked.Witches.2018.1080p.WEB-DL.DD2.0.H264-FGT
  48. Language                                 : English
  49. Service kind                             : Complete Main
  50. Default                                  : Yes
  51. Forced                                   : No

  52. Text
  53. ID                                       : 3
  54. Format                                   : UTF-8
  55. Codec ID                                 : S_TEXT/UTF8
  56. Codec ID/Info                            : UTF-8 Plain Text
  57. Duration                                 : 1 h 19 min
  58. Bit rate                                 : 35 b/s
  59. Count of elements                        : 624
  60. Stream size                              : 20.7 KiB (0%)
  61. Language                                 : English
  62. Default                                  : Yes
  63. Forced                                   : No

  64. Menu
  65. 00:00:00.000                             : en:1
  66. 00:12:40.600                             : en:2
  67. 00:23:26.360                             : en:3
  68. 00:33:20.999                             : en:4
  69. 00:46:25.479                             : en:5
  70. 00:56:16.198                             : en:6
  71. 01:06:31.558                             : en:7
  72. 01:16:31.118                             : en:8
复制代码


精彩剧照




蓝光高清网提示您 点击下方附件名称 马上开始下载



温馨提示:
本站资源优先使用迅雷下载,迅雷会员下载,速度基本可以跑满宽带
如果遇到无资源或者版权问题无法下载,推荐使用115网盘离线下载(点击查看115网盘离线下载教程


  • 该资源需要您回复以后 刷新网页进行下载操作

  • 1、Wicked.Witches.2018.1080p.WEB-DL.DD2.0.H264-FGT.torrent 26KB 已下载 0 次

加入蓝光高清网VIP会员  无限制下载本站所有资源---点此加入

资源下载、资源播放、字幕使用、无法下载等常见问题---点这里

回复

使用道具 举报

懒得打字嘛,点击右侧快捷回复
高级模式
B Color Image Link Quote Code Smilies 上传

本版积分规则

关注0

粉丝0

帖子45742

发布主题
最新电影 论坛
广告位

Archiver手机版蓝光高清网 ( 渝ICP备18006373号-2 )|网站地图

Powered by Discuz! X3.4  © 2001-2013 Comsenz Inc.