[剧情片] 神偷淑女情/用爱将心偷 Thief.Of.Hearts.1984.1080p.AMZN.WEBRip.DDP5.1.x264-ABM 9.22GB

[复制链接]
蓝鸟VIP会员 永久VIP 发表于 7 天前 | 显示全部楼层 |阅读模式 打印 上一主题 下一主题

马上注册,轻松下载,海量资源,让你轻松玩转社区。

您需要 登录 才可以下载或查看,没有帐号?立即注册

x


译  名 神偷淑女情 / 用爱将心偷
片  名 Thief of Hearts
年  代 1984
产  地 美国
类  别 剧情 / 惊悚 / 犯罪
语  言 英语
上映日期 1984-10-19
IMDb评分  5.8/10 from 1476 users
IMDb链接  http://www.imdb.com/title/tt0088256
豆瓣评分 0/10 from 0 users
豆瓣链接 https://movie.douban.com/subject/1302956/
片  长 100 分钟
导  演 Douglas Day Stewart
编  剧 Douglas Day Stewart
主  演 斯蒂文·鲍尔 Steven Bauer
       克斯汀·埃伯索尔 Christine Ebersole
       大卫·卡罗素 David Caruso


标  签 美国电影 | 我想看!!! | 美国 | 我的电影5 | Drama | 1984 | 郑虹 | 贼

简  介  

  这是一部探讨女性性幻想心理的浪漫文艺爱情片。剧情讲述史蒂文.鲍尔饰演的史考特外表英俊潇洒,风流倜傥,却是一个极为重视享受生活的惯贼。他在一次行窃中窃得芭芭拉.威廉斯扮演的米姬的日记,于是他按照日记中描述的那样,以米姬梦中情人的打扮出现在米姬的世界里,成为一个既偷物又偷心的大盗。该片情节安排相当巧妙,在亮丽映象的包装下,让观众达到视听等感观上的极为满意的效果。


该资源信息参数
  1. Video
  2. ID                                       : 1
  3. Format                                   : AVC
  4. Format/Info                              : Advanced Video Codec
  5. Format profile                           : <a href="/cdn-cgi/l/email-protection" class="__cf_email__" data-cfemail="c28aaba5aa828ef6">[email protected]</a>
  6. Format settings                          : CABAC / 4 Ref Frames
  7. Format settings, CABAC                   : Yes
  8. Format settings, Reference frames        : 4 frames
  9. Codec ID                                 : V_MPEG4/ISO/AVC
  10. Duration                                 : 1 h 39 min
  11. Bit rate                                 : 12.3 Mb/s
  12. Width                                    : 1 920 pixels
  13. Height                                   : 1 080 pixels
  14. Display aspect ratio                     : 16:9
  15. Frame rate mode                          : Constant
  16. Frame rate                               : 23.976 (24000/1001) FPS
  17. Color space                              : YUV
  18. Chroma subsampling                       : 4:2:0
  19. Bit depth                                : 8 bits
  20. Scan type                                : Progressive
  21. Bits/(Pixel*Frame)                       : 0.248
  22. Stream size                              : 8.59 GiB (93%)
  23. Language                                 : English
  24. Default                                  : Yes
  25. Forced                                   : No
  26. Color range                              : Limited
  27. Color primaries                          : BT.709
  28. Transfer characteristics                 : BT.709
  29. Matrix coefficients                      : BT.709

  30. Audio
  31. ID                                       : 2
  32. Format                                   : E-AC-3
  33. Format/Info                              : Enhanced AC-3
  34. Commercial name                          : Dolby Digital Plus
  35. Codec ID                                 : A_EAC3
  36. Duration                                 : 1 h 39 min
  37. Bit rate mode                            : Constant
  38. Bit rate                                 : 640 kb/s
  39. Channel(s)                               : 6 channels
  40. Channel layout                           : L R C LFE Ls Rs
  41. Sampling rate                            : 48.0 kHz
  42. Frame rate                               : 31.250 FPS (1536 SPF)
  43. Compression mode                         : Lossy
  44. Stream size                              : 457 MiB (5%)
  45. Language                                 : English
  46. Service kind                             : Complete Main
  47. Default                                  : Yes
  48. Forced                                   : No

  49. Text
  50. ID                                       : 3
  51. Format                                   : UTF-8
  52. Codec ID                                 : S_TEXT/UTF8
  53. Codec ID/Info                            : UTF-8 Plain Text
  54. Language                                 : English
  55. Default                                  : No
  56. Forced                                   : No
复制代码


精彩剧照




蓝光高清网提示您 点击下方附件名称 马上开始下载



温馨提示:
本站资源优先使用迅雷下载,迅雷会员下载,速度基本可以跑满宽带
如果遇到无资源或者版权问题无法下载,推荐使用115网盘离线下载(点击查看115网盘离线下载教程


  • 该资源需要您回复以后 刷新网页进行下载操作

  • 1、Thief.Of.Hearts.1984.1080p.AMZN.WEBRip.DDP5.1.x264-ABM.torrent 47KB 已下载 0 次

加入蓝光高清网VIP会员  无限制下载本站所有资源---点此加入

资源下载、资源播放、字幕使用、无法下载等常见问题---点这里

回复

使用道具 举报

懒得打字嘛,点击右侧快捷回复
高级模式
B Color Image Link Quote Code Smilies 上传

本版积分规则

关注0

粉丝0

帖子45769

发布主题
最新电影 论坛
广告位

Archiver手机版蓝光高清网 ( 渝ICP备18006373号-2 )|网站地图

Powered by Discuz! X3.4  © 2001-2013 Comsenz Inc.