[纪录片] 我的鬼哭神嚎/我的阴宅 My.Amityville.Horror.2012.1080p.AMZN.WEBRip.DDP2.0.x264-TEPES 5.10GB

[复制链接]
蓝鸟VIP会员 永久VIP 发表于 7 天前 | 显示全部楼层 |阅读模式 打印 上一主题 下一主题

马上注册,轻松下载,海量资源,让你轻松玩转社区。

您需要 登录 才可以下载或查看,没有帐号?立即注册

x


译  名 我的鬼哭神嚎 / 我的阴宅
片  名 My Amityville Horror
年  代 2012
产  地 美国
类  别 纪录片
语  言 英语
IMDb评分  5.5/10 from 1708 users
IMDb链接  http://www.imdb.com/title/tt1727523
豆瓣评分 0/10 from 0 users
豆瓣链接 https://movie.douban.com/subject/19896416/
导  演 Eric Walter
主  演 Daniel Lutz
       Laura DiDio
       Lorraine Warren


标  签 纪录片 | 恐怖 | 美国 | 惊悚 | 2012 | 美国电影 | 纪录 | 电影

简  介  

  On November 13, 1974, the house at 112 Ocean Avenue in Amityville, New York became a place that locals feared when 23-year-old Ronald DeFeo murdered his entire family under very mysterious circumstances. In September 1977, it became a place the entire world feared when Jay Anson’s book “The Amityville Horror” was published (later adapted into the popular series of films), bringing the house international notoriety and instant entry into the occult history books. Not so much because of the DeFeo murders, but because it told the tale of what happened to the next family who lived there, one year after the massacre. The Lutz family.
  In 1975, they were dwellers for all of 28 days before fleeing in mortal terror, the victims of widespread supernatural happenings that pushed them to the brink of madness and had them fearing for their lives. A media circus began that never fully ended. Straight up to their recent deaths, George and Kathy Lutz have never gone back on a single claim. Daniel Lutz was ten years old at the time that his family literally went to hell. Never before in the 35 years since living through the ordeals has he gone on record about his experiences. This is his story, in his words.


该资源信息参数
  1. Video
  2. ID                                       : 1
  3. Format                                   : AVC
  4. Format/Info                              : Advanced Video Codec
  5. Format profile                           : <a href="/cdn-cgi/l/email-protection" class="__cf_email__" data-cfemail="e0a8898788a0acd4">[email protected]</a>
  6. Format settings                          : CABAC / 4 Ref Frames
  7. Format settings, CABAC                   : Yes
  8. Format settings, Reference frames        : 4 frames
  9. Codec ID                                 : V_MPEG4/ISO/AVC
  10. Duration                                 : 1 h 28 min
  11. Bit rate mode                            : Constant
  12. Bit rate                                 : 7 988 kb/s
  13. Nominal bit rate                         : 10 000 kb/s
  14. Width                                    : 1 920 pixels
  15. Height                                   : 1 080 pixels
  16. Display aspect ratio                     : 16:9
  17. Frame rate mode                          : Constant
  18. Frame rate                               : 23.976 (24000/1001) FPS
  19. Color space                              : YUV
  20. Chroma subsampling                       : 4:2:0
  21. Bit depth                                : 8 bits
  22. Scan type                                : Progressive
  23. Bits/(Pixel*Frame)                       : 0.161
  24. Stream size                              : 4.96 GiB (97%)
  25. Default                                  : Yes
  26. Forced                                   : No
  27. Color range                              : Limited
  28. Color primaries                          : BT.709
  29. Transfer characteristics                 : BT.709
  30. Matrix coefficients                      : BT.709

  31. Audio
  32. ID                                       : 2
  33. Format                                   : E-AC-3
  34. Format/Info                              : Enhanced AC-3
  35. Commercial name                          : Dolby Digital Plus
  36. Codec ID                                 : A_EAC3
  37. Duration                                 : 1 h 28 min
  38. Bit rate mode                            : Constant
  39. Bit rate                                 : 224 kb/s
  40. Channel(s)                               : 2 channels
  41. Channel layout                           : L R
  42. Sampling rate                            : 48.0 kHz
  43. Frame rate                               : 31.250 FPS (1536 SPF)
  44. Compression mode                         : Lossy
  45. Stream size                              : 142 MiB (3%)
  46. Language                                 : English
  47. Service kind                             : Complete Main
  48. Default                                  : Yes
  49. Forced                                   : No

  50. Text
  51. ID                                       : 3
  52. Format                                   : UTF-8
  53. Codec ID                                 : S_TEXT/UTF8
  54. Codec ID/Info                            : UTF-8 Plain Text
  55. Duration                                 : 1 h 28 min
  56. Bit rate                                 : 99 b/s
  57. Count of elements                        : 2639
  58. Stream size                              : 64.7 KiB (0%)
  59. Title                                    : English [CC](SDH)
  60. Language                                 : English
  61. Default                                  : Yes
  62. Forced                                   : No
复制代码


精彩剧照




蓝光高清网提示您 点击下方附件名称 马上开始下载



温馨提示:
本站资源优先使用迅雷下载,迅雷会员下载,速度基本可以跑满宽带
如果遇到无资源或者版权问题无法下载,推荐使用115网盘离线下载(点击查看115网盘离线下载教程


  • 该资源需要您回复以后 刷新网页进行下载操作

  • 1、My.Amityville.Horror.2012.1080p.AMZN.WEBRip.DDP2.0.x264-TEPES.torrent 26KB 已下载 0 次

加入蓝光高清网VIP会员  无限制下载本站所有资源---点此加入

资源下载、资源播放、字幕使用、无法下载等常见问题---点这里

回复

使用道具 举报

懒得打字嘛,点击右侧快捷回复
高级模式
B Color Image Link Quote Code Smilies 上传

本版积分规则

关注0

粉丝0

帖子45749

发布主题
最新电影 论坛
广告位

Archiver手机版蓝光高清网 ( 渝ICP备18006373号-2 )|网站地图

Powered by Discuz! X3.4  © 2001-2013 Comsenz Inc.