[剧情片] 给我钱/战利品 Gimme.The.Loot.2012.1080p.AMZN.WEBRip.DDP5.1.x264-TEPES 5.53GB

[复制链接]
蓝鸟VIP会员 永久VIP 发表于 7 天前 | 显示全部楼层 |阅读模式 打印 上一主题 下一主题

马上注册,轻松下载,海量资源,让你轻松玩转社区。

您需要 登录 才可以下载或查看,没有帐号?立即注册

x


译  名 给我钱 / 战利品
片  名 Gimme the Loot
年  代 2012
产  地 美国
类  别 剧情 / 喜剧 / 犯罪
语  言 英语
上映日期 2012-03-10(西南偏南电影节)
IMDb评分  6.6/10 from 2296 users
IMDb链接  http://www.imdb.com/title/tt2139919
豆瓣评分 6.9/10 from 40 users
豆瓣链接 https://movie.douban.com/subject/10559672/
片  长 79分钟
导  演 亚当·里昂 Adam Leon
编  剧 亚当·里昂 Adam Leon
主  演 Ty Hickson
       Zo? Lescaze
       Joshua Rivera
       Tashiana Washington


标  签 美国 | 独立电影 | 剧情 | 2012 | 青春 | 美国电影 | 犯罪 | Zo?Lescaze

简  介  

  When a rival gang buffs Malcolm and Sofia"s latest graffiti masterpiece with a replica of the NY Mets home-run apple, they"re determined to get spectacular revenge - by tagging the real Mets" apple. Over the course of a whirlwind two-day heat wave, these tough teens from the Bronx must hustle, scramble, and steal to execute the scheme that will make them the most famous writers in New York.

获奖情况  

  第65届戛纳电影节(2012)
  金摄影机奖(导演处女作奖)(提名) 亚当·里昂

  第28届美国独立精神奖(2013)
  最佳处女作(提名) Dominic Buchanan / Natalie Difford / 亚当·里昂 / 贾蒙·华盛顿
  值得关注新人奖 亚当·里昂

  第23届哥谭独立电影奖(2013)
  独立电影人奖(提名) 亚当·里昂


该资源信息参数
  1. Video
  2. ID                                       : 1
  3. Format                                   : AVC
  4. Format/Info                              : Advanced Video Codec
  5. Format profile                           : <a href="/cdn-cgi/l/email-protection" class="__cf_email__" data-cfemail="f5bd9c929db5b9c1">[email protected]</a>
  6. Format settings                          : CABAC / 4 Ref Frames
  7. Format settings, CABAC                   : Yes
  8. Format settings, Reference frames        : 4 frames
  9. Codec ID                                 : V_MPEG4/ISO/AVC
  10. Duration                                 : 1 h 19 min
  11. Bit rate mode                            : Constant
  12. Bit rate                                 : 9 324 kb/s
  13. Nominal bit rate                         : 10 000 kb/s
  14. Width                                    : 1 920 pixels
  15. Height                                   : 1 080 pixels
  16. Display aspect ratio                     : 16:9
  17. Frame rate mode                          : Constant
  18. Frame rate                               : 23.976 (24000/1001) FPS
  19. Color space                              : YUV
  20. Chroma subsampling                       : 4:2:0
  21. Bit depth                                : 8 bits
  22. Scan type                                : Progressive
  23. Bits/(Pixel*Frame)                       : 0.188
  24. Stream size                              : 5.17 GiB (94%)
  25. Default                                  : Yes
  26. Forced                                   : No
  27. Color range                              : Limited
  28. Color primaries                          : BT.709
  29. Transfer characteristics                 : BT.709
  30. Matrix coefficients                      : BT.709

  31. Audio
  32. ID                                       : 2
  33. Format                                   : E-AC-3
  34. Format/Info                              : Enhanced AC-3
  35. Commercial name                          : Dolby Digital Plus
  36. Codec ID                                 : A_EAC3
  37. Duration                                 : 1 h 19 min
  38. Bit rate mode                            : Constant
  39. Bit rate                                 : 640 kb/s
  40. Channel(s)                               : 6 channels
  41. Channel layout                           : L R C LFE Ls Rs
  42. Sampling rate                            : 48.0 kHz
  43. Frame rate                               : 31.250 FPS (1536 SPF)
  44. Compression mode                         : Lossy
  45. Stream size                              : 363 MiB (6%)
  46. Language                                 : English
  47. Service kind                             : Complete Main
  48. Default                                  : Yes
  49. Forced                                   : No

  50. Text
  51. ID                                       : 3
  52. Format                                   : UTF-8
  53. Codec ID                                 : S_TEXT/UTF8
  54. Codec ID/Info                            : UTF-8 Plain Text
  55. Duration                                 : 1 h 19 min
  56. Bit rate                                 : 94 b/s
  57. Count of elements                        : 2546
  58. Stream size                              : 54.8 KiB (0%)
  59. Title                                    : English [CC](SDH)
  60. Language                                 : English
  61. Default                                  : Yes
  62. Forced                                   : No
复制代码


精彩剧照




蓝光高清网提示您 点击下方附件名称 马上开始下载



温馨提示:
本站资源优先使用迅雷下载,迅雷会员下载,速度基本可以跑满宽带
如果遇到无资源或者版权问题无法下载,推荐使用115网盘离线下载(点击查看115网盘离线下载教程


  • 该资源需要您回复以后 刷新网页进行下载操作

  • 1、Gimme.The.Loot.2012.1080p.AMZN.WEBRip.DDP5.1.x264-TEPES.torrent 28KB 已下载 0 次

加入蓝光高清网VIP会员  无限制下载本站所有资源---点此加入

资源下载、资源播放、字幕使用、无法下载等常见问题---点这里

回复

使用道具 举报

懒得打字嘛,点击右侧快捷回复
高级模式
B Color Image Link Quote Code Smilies 上传

本版积分规则

关注0

粉丝0

帖子45739

发布主题
最新电影 论坛
广告位

Archiver手机版蓝光高清网 ( 渝ICP备18006373号-2 )|网站地图

Powered by Discuz! X3.4  © 2001-2013 Comsenz Inc.