[剧情片] 日复一日/七天 Everyday.2012.1080p.AMZN.WEBRip.DDP5.1.x264-TEPES 8.05GB

[复制链接]
蓝鸟VIP会员 永久VIP 发表于 7 天前 | 显示全部楼层 |阅读模式 打印 上一主题 下一主题

马上注册,轻松下载,海量资源,让你轻松玩转社区。

您需要 登录 才可以下载或查看,没有帐号?立即注册

x


译  名 日复一日 / 七天 / 日日思君 / 每天 / 牢里牢外
片  名 Everyday
年  代 2012
产  地 英国
类  别 剧情
语  言 英语
上映日期 2013-01-18(英国)
IMDb评分  6.2/10 from 715 users
IMDb链接  http://www.imdb.com/title/tt1037223
豆瓣评分 7.5/10 from 393 users
豆瓣链接 https://movie.douban.com/subject/2244738/
片  长 106分钟
导  演 迈克尔·温特伯顿 Michael Winterbottom
编  剧 Laurence Coriat / 迈克尔·温特伯顿 Michael Winterbottom
主  演 约翰·西姆 John Simm
       雪莉·亨德森 Shirley Henderson


标  签 英国 | 英国电影 | JohnSimm | 2012 | 剧情 | MichaelWinterbottom | 电影 | 家庭

简  介  

  曾获柏林电影节金熊奖的英国导演迈克尔·温特波顿用五年时间,以伪纪录的手法,拍摄入狱的丈夫、辛苦养家的妻子及四个孩子的生活。影片风格平实而含蓄,五年间孩子在镜头前慢慢长大,一点一滴的片段涌现出时光流逝的自然魅力。导演采用无剧本方式,每周拍摄一次,小演员们以真名参与拍摄,在未经雕琢的逼实状态下进行演出。曾出演长寿英剧《神秘博士》的约翰·西姆和科幻巨制《哈利·波特》的雪莉·亨德森分饰父母,也是本片的一大亮点。

获奖情况  

  第56届伦敦电影节(2012)
  最佳影片(提名) 迈克尔·温特伯顿


该资源信息参数
  1. Video
  2. ID                                       : 1
  3. Format                                   : AVC
  4. Format/Info                              : Advanced Video Codec
  5. Format profile                           : <a href="/cdn-cgi/l/email-protection" class="__cf_email__" data-cfemail="733b1a141b333f47">[email protected]</a>
  6. Format settings                          : CABAC / 4 Ref Frames
  7. Format settings, CABAC                   : Yes
  8. Format settings, Reference frames        : 4 frames
  9. Codec ID                                 : V_MPEG4/ISO/AVC
  10. Duration                                 : 1 h 30 min
  11. Bit rate mode                            : Variable
  12. Bit rate                                 : 12.1 Mb/s
  13. Maximum bit rate                         : 15.0 Mb/s
  14. Width                                    : 1 920 pixels
  15. Height                                   : 1 080 pixels
  16. Display aspect ratio                     : 16:9
  17. Frame rate mode                          : Constant
  18. Frame rate                               : 24.000 FPS
  19. Color space                              : YUV
  20. Chroma subsampling                       : 4:2:0
  21. Bit depth                                : 8 bits
  22. Scan type                                : Progressive
  23. Bits/(Pixel*Frame)                       : 0.244
  24. Stream size                              : 7.65 GiB (95%)
  25. Writing library                          : x264 core 148 r2623 d5b2374
  26. Encoding settings                        : cabac=1 / ref=4 / deblock=1:-1:-1 / analyse=0x3:0x133 / me=umh / subme=9 / psy=1 / psy_rd=1.00:0.15 / mixed_ref=1 / me_range=24 / chroma_me=1 / trellis=2 / 8x8dct=1 / cqm=0 / deadzone=21,11 / fast_pskip=1 / chroma_qp_offset=-3 / threads=34 / lookahead_threads=5 / sliced_threads=0 / nr=150 / decimate=1 / interlaced=0 / bluray_compat=0 / constrained_intra=0 / bframes=8 / b_pyramid=2 / b_adapt=2 / b_bias=0 / direct=3 / weightb=1 / open_gop=0 / weightp=2 / keyint=120 / keyint_min=61 / scenecut=0 / intra_refresh=0 / rc_lookahead=120 / rc=crf / mbtree=1 / crf=18.0 / qcomp=0.60 / qpmin=0 / qpmax=69 / qpstep=4 / vbv_maxrate=15000 / vbv_bufsize=31250 / crf_max=0.0 / nal_hrd=vbr / filler=0 / ip_ratio=1.40 / aq=3:1.00
  27. Default                                  : Yes
  28. Forced                                   : No
  29. Color range                              : Limited
  30. Color primaries                          : BT.709
  31. Transfer characteristics                 : BT.709
  32. Matrix coefficients                      : BT.709

  33. Audio
  34. ID                                       : 2
  35. Format                                   : E-AC-3
  36. Format/Info                              : Enhanced AC-3
  37. Commercial name                          : Dolby Digital Plus
  38. Codec ID                                 : A_EAC3
  39. Duration                                 : 1 h 30 min
  40. Bit rate mode                            : Constant
  41. Bit rate                                 : 640 kb/s
  42. Channel(s)                               : 6 channels
  43. Channel layout                           : L R C LFE Ls Rs
  44. Sampling rate                            : 48.0 kHz
  45. Frame rate                               : 31.250 FPS (1536 SPF)
  46. Compression mode                         : Lossy
  47. Stream size                              : 413 MiB (5%)
  48. Language                                 : English
  49. Service kind                             : Complete Main
  50. Default                                  : Yes
  51. Forced                                   : No

  52. Text
  53. ID                                       : 3
  54. Format                                   : UTF-8
  55. Codec ID                                 : S_TEXT/UTF8
  56. Codec ID/Info                            : UTF-8 Plain Text
  57. Duration                                 : 1 h 30 min
  58. Bit rate                                 : 52 b/s
  59. Count of elements                        : 1979
  60. Stream size                              : 34.7 KiB (0%)
  61. Title                                    : English [CC](SDH)
  62. Language                                 : English
  63. Default                                  : Yes
  64. Forced                                   : No
复制代码


精彩剧照




蓝光高清网提示您 点击下方附件名称 马上开始下载



温馨提示:
本站资源优先使用迅雷下载,迅雷会员下载,速度基本可以跑满宽带
如果遇到无资源或者版权问题无法下载,推荐使用115网盘离线下载(点击查看115网盘离线下载教程


  • 该资源需要您回复以后 刷新网页进行下载操作

  • 1、Everyday.2012.1080p.AMZN.WEBRip.DDP5.1.x264-TEPES.torrent 41KB 已下载 0 次

加入蓝光高清网VIP会员  无限制下载本站所有资源---点此加入

资源下载、资源播放、字幕使用、无法下载等常见问题---点这里

回复

使用道具 举报

懒得打字嘛,点击右侧快捷回复
高级模式
B Color Image Link Quote Code Smilies 上传

本版积分规则

关注0

粉丝0

帖子45744

发布主题
最新电影 论坛
广告位

Archiver手机版蓝光高清网 ( 渝ICP备18006373号-2 )|网站地图

Powered by Discuz! X3.4  © 2001-2013 Comsenz Inc.