[剧情片] 南方 Dixieland.2015.1080p.AMZN.WEBRip.DDP5.1.x264-TEPES 7.03GB

[复制链接]
蓝鸟VIP会员 永久VIP 发表于 7 天前 | 显示全部楼层 |阅读模式 打印 上一主题 下一主题

马上注册,轻松下载,海量资源,让你轻松玩转社区。

您需要 登录 才可以下载或查看,没有帐号?立即注册

x


译  名 南方
片  名 Dixieland
年  代 2015
产  地 美国
类  别 剧情 / 犯罪
语  言 英语
上映日期 2015-04-19(美国)
IMDb评分  5.2/10 from 1031 users
IMDb链接  http://www.imdb.com/title/tt4188436
豆瓣评分 0/10 from 0 users
豆瓣链接 https://movie.douban.com/subject/26675324/
片  长 92分钟
导  演 Hank Bedford
编  剧 Hank Bedford
主  演 克里斯·泽尔卡 Chris Zylka
       丽莉·克亚芙 Riley Keough
       菲丝·希尔 Faith Hill
       RJ·米特 RJ Mitte
       布拉德·卡特 Brad Carter
       Steve Earle
       斯宾赛·洛夫兰科 Spencer Lofranco


标  签 美国 | 犯罪 | 剧情 | 2015 | 美国电影 | 独立电影 | 文艺 | ★★★

简  介  

  A young, recently-released and unpredictable ex-con with bad luck, and a sexy, listless girl-next-door with a troubled family, become trapped in a downward spiral of crime and obsessive love, as they try to ditch their dead-end town for a better life.


该资源信息参数
  1. Video
  2. ID                                       : 1
  3. Format                                   : AVC
  4. Format/Info                              : Advanced Video Codec
  5. Format profile                           : <a href="/cdn-cgi/l/email-protection" class="__cf_email__" data-cfemail="5018393738101c64">[email protected]</a>
  6. Format settings                          : CABAC / 4 Ref Frames
  7. Format settings, CABAC                   : Yes
  8. Format settings, Reference frames        : 4 frames
  9. Codec ID                                 : V_MPEG4/ISO/AVC
  10. Duration                                 : 1 h 38 min
  11. Bit rate mode                            : Constant
  12. Bit rate                                 : 10 000 kb/s
  13. Width                                    : 1 920 pixels
  14. Height                                   : 1 040 pixels
  15. Display aspect ratio                     : 1.85:1
  16. Frame rate mode                          : Constant
  17. Frame rate                               : 24.000 FPS
  18. Color space                              : YUV
  19. Chroma subsampling                       : 4:2:0
  20. Bit depth                                : 8 bits
  21. Scan type                                : Progressive
  22. Bits/(Pixel*Frame)                       : 0.209
  23. Stream size                              : 6.59 GiB (94%)
  24. Language                                 : English
  25. Default                                  : Yes
  26. Forced                                   : No
  27. Color range                              : Limited
  28. Color primaries                          : BT.709
  29. Transfer characteristics                 : BT.709
  30. Matrix coefficients                      : BT.709

  31. Audio
  32. ID                                       : 2
  33. Format                                   : E-AC-3
  34. Format/Info                              : Enhanced AC-3
  35. Commercial name                          : Dolby Digital Plus
  36. Codec ID                                 : A_EAC3
  37. Duration                                 : 1 h 38 min
  38. Bit rate mode                            : Constant
  39. Bit rate                                 : 640 kb/s
  40. Channel(s)                               : 6 channels
  41. Channel layout                           : L R C LFE Ls Rs
  42. Sampling rate                            : 48.0 kHz
  43. Frame rate                               : 31.250 FPS (1536 SPF)
  44. Compression mode                         : Lossy
  45. Stream size                              : 452 MiB (6%)
  46. Language                                 : English
  47. Service kind                             : Complete Main
  48. Default                                  : Yes
  49. Forced                                   : No

  50. Text
  51. ID                                       : 3
  52. Format                                   : UTF-8
  53. Codec ID                                 : S_TEXT/UTF8
  54. Codec ID/Info                            : UTF-8 Plain Text
  55. Duration                                 : 1 h 38 min
  56. Bit rate                                 : 51 b/s
  57. Count of elements                        : 1271
  58. Stream size                              : 37.1 KiB (0%)
  59. Title                                    : English [CC](SDH)
  60. Language                                 : English
  61. Default                                  : Yes
  62. Forced                                   : No
复制代码


精彩剧照




蓝光高清网提示您 点击下方附件名称 马上开始下载



温馨提示:
本站资源优先使用迅雷下载,迅雷会员下载,速度基本可以跑满宽带
如果遇到无资源或者版权问题无法下载,推荐使用115网盘离线下载(点击查看115网盘离线下载教程


  • 该资源需要您回复以后 刷新网页进行下载操作

  • 1、Dixieland.2015.1080p.AMZN.WEBRip.DDP5.1.x264-TEPES.torrent 36KB 已下载 0 次

加入蓝光高清网VIP会员  无限制下载本站所有资源---点此加入

资源下载、资源播放、字幕使用、无法下载等常见问题---点这里

回复

使用道具 举报

懒得打字嘛,点击右侧快捷回复
高级模式
B Color Image Link Quote Code Smilies 上传

本版积分规则

关注0

粉丝0

帖子45737

发布主题
最新电影 论坛
广告位

Archiver手机版蓝光高清网 ( 渝ICP备18006373号-2 )|网站地图

Powered by Discuz! X3.4  © 2001-2013 Comsenz Inc.