[喜剧片] 追星 Dealin.with.Idiots.2013.1080p.AMZN.WEBRip.DDP5.1.x264-TEPES 6.08GB

[复制链接]
蓝鸟VIP会员 永久VIP 发表于 7 天前 | 显示全部楼层 |阅读模式 打印 上一主题 下一主题

马上注册,轻松下载,海量资源,让你轻松玩转社区。

您需要 登录 才可以下载或查看,没有帐号?立即注册

x


译  名 追星
片  名 Dealin" with Idiots
年  代 2013
产  地 美国
类  别 喜剧
语  言 英语
上映日期 2013-06-12(美国)
IMDb评分  5.4/10 from 1186 users
IMDb链接  http://www.imdb.com/title/tt2948266
豆瓣评分 0/10 from 0 users
豆瓣链接 https://movie.douban.com/subject/24839135/
导  演 杰夫·格尔林 Jeff Garlin
编  剧 杰夫·格尔林 Jeff Garlin / Peter Murrieta
主  演 杰夫·格尔林 Jeff Garlin
       吉娜·格申 Gina Gershon
       杰米·格尔兹 Jami Gertz
       鲍勃·奥登科克 Bob Odenkirk
       妮娅·瓦达拉斯 Nia Vardalos
       理查德·坎德 Richard Kind


标  签 美国 | 喜剧 | 美国电影 | JeffGarlin | 2013 | 不感兴趣 | 追星 | 电影

简  介  

  MaxMorris 一个著名的喜剧演员 他的儿子却沉迷于青年棒球联盟的荒唐竞争中 他应该如何面对呢。。。


该资源信息参数
  1. Video
  2. ID                                       : 1
  3. Format                                   : AVC
  4. Format/Info                              : Advanced Video Codec
  5. Format profile                           : <a href="/cdn-cgi/l/email-protection" class="__cf_email__" data-cfemail="8cc4e5ebe4ccc0b8">[email protected]</a>
  6. Format settings                          : CABAC / 4 Ref Frames
  7. Format settings, CABAC                   : Yes
  8. Format settings, Reference frames        : 4 frames
  9. Codec ID                                 : V_MPEG4/ISO/AVC
  10. Duration                                 : 1 h 26 min
  11. Bit rate mode                            : Constant
  12. Bit rate                                 : 9 397 kb/s
  13. Nominal bit rate                         : 10 000 kb/s
  14. Width                                    : 1 920 pixels
  15. Height                                   : 1 040 pixels
  16. Display aspect ratio                     : 1.85:1
  17. Frame rate mode                          : Constant
  18. Frame rate                               : 23.976 (24000/1001) FPS
  19. Color space                              : YUV
  20. Chroma subsampling                       : 4:2:0
  21. Bit depth                                : 8 bits
  22. Scan type                                : Progressive
  23. Bits/(Pixel*Frame)                       : 0.196
  24. Stream size                              : 5.69 GiB (94%)
  25. Language                                 : English
  26. Default                                  : Yes
  27. Forced                                   : No
  28. Color range                              : Limited
  29. Color primaries                          : BT.709
  30. Transfer characteristics                 : BT.709
  31. Matrix coefficients                      : BT.709

  32. Audio
  33. ID                                       : 2
  34. Format                                   : E-AC-3
  35. Format/Info                              : Enhanced AC-3
  36. Commercial name                          : Dolby Digital Plus
  37. Codec ID                                 : A_EAC3
  38. Duration                                 : 1 h 26 min
  39. Bit rate mode                            : Constant
  40. Bit rate                                 : 640 kb/s
  41. Channel(s)                               : 6 channels
  42. Channel layout                           : L R C LFE Ls Rs
  43. Sampling rate                            : 48.0 kHz
  44. Frame rate                               : 31.250 FPS (1536 SPF)
  45. Compression mode                         : Lossy
  46. Stream size                              : 397 MiB (6%)
  47. Language                                 : English
  48. Service kind                             : Complete Main
  49. Default                                  : Yes
  50. Forced                                   : No

  51. Text
  52. ID                                       : 3
  53. Format                                   : UTF-8
  54. Codec ID                                 : S_TEXT/UTF8
  55. Codec ID/Info                            : UTF-8 Plain Text
  56. Duration                                 : 1 h 23 min
  57. Bit rate                                 : 110 b/s
  58. Count of elements                        : 2271
  59. Stream size                              : 67.8 KiB (0%)
  60. Title                                    : English [CC](SDH)
  61. Language                                 : English
  62. Default                                  : Yes
  63. Forced                                   : No
复制代码


精彩剧照




蓝光高清网提示您 点击下方附件名称 马上开始下载



温馨提示:
本站资源优先使用迅雷下载,迅雷会员下载,速度基本可以跑满宽带
如果遇到无资源或者版权问题无法下载,推荐使用115网盘离线下载(点击查看115网盘离线下载教程


  • 该资源需要您回复以后 刷新网页进行下载操作

  • 1、Dealin.with.Idiots.2013.1080p.AMZN.WEBRip.DDP5.1.x264-TEPES.torrent 31KB 已下载 0 次

加入蓝光高清网VIP会员  无限制下载本站所有资源---点此加入

资源下载、资源播放、字幕使用、无法下载等常见问题---点这里

回复

使用道具 举报

懒得打字嘛,点击右侧快捷回复
高级模式
B Color Image Link Quote Code Smilies 上传

本版积分规则

关注0

粉丝0

帖子45743

发布主题
最新电影 论坛
广告位

Archiver手机版蓝光高清网 ( 渝ICP备18006373号-2 )|网站地图

Powered by Discuz! X3.4  © 2001-2013 Comsenz Inc.