[剧情片] 十字街头/十字路口 Crossroads.1986.1080p.AMZN.WEBRip.DDP2.0.x264-QOQ 10.16GB

[复制链接]
蓝鸟VIP会员 永久VIP 发表于 7 天前 | 显示全部楼层 |阅读模式 打印 上一主题 下一主题

马上注册,轻松下载,海量资源,让你轻松玩转社区。

您需要 登录 才可以下载或查看,没有帐号?立即注册

x


译  名 十字街头 / 十字路口
片  名 Crossroads
年  代 1986
产  地 美国
类  别 剧情 / 爱情 / 悬疑 / 音乐
语  言 英语
上映日期 1986-03-14(美国)
IMDb评分  7.1/10 from 12949 users
IMDb链接  http://www.imdb.com/title/tt0090888
豆瓣评分 8.6/10 from 1244 users
豆瓣链接 https://movie.douban.com/subject/1299446/
片  长 99 分钟
导  演 Walter Hill
编  剧 John Fusco
主  演 Ralph Macchio
       Jami Gertz
       Steve Vai


标  签 音乐 | 布鲁斯 | 吉他 | 美国 | 摇滚电影 | STEVE·VAI | 美国电影 | 摇滚

简  介  

  出生于长岛的白人青年尤金·马东(拉尔夫·马奇奥 Ralph Macchio 饰)在古典吉他的演奏上拥有极高的天分,但是他如此热爱蓝调布鲁斯,尤其对传奇黑人布鲁斯歌手罗伯特·约翰逊(蒂姆·罗斯 Tim Russ 饰)着迷不已。据说约翰逊生前曾录下30首歌曲,但只有前29首流传于世。为了找到那首失落的歌曲,他辗转找到约翰逊当年的搭档——前布鲁斯乐队“盲狗福尔敦”成员威利·布朗(Joe Seneca 饰),甚至不惜以勤杂工的身份进入布朗所在的养老院。通过音乐,一老一少拉近彼此距离,威利则瞅准时机让马东带他离开养老院。
  他们即将启程前往盲狗福尔敦的发源地密西西比州,寻找曾与音乐家们做过交易的魔鬼,寻找那首失落的传奇之歌……


该资源信息参数
  1. Video
  2. ID                                       : 1
  3. Format                                   : AVC
  4. Format/Info                              : Advanced Video Codec
  5. Format profile                           : <a href="/cdn-cgi/l/email-protection" class="__cf_email__" data-cfemail="6921000e0129255d">[email protected]</a>
  6. Format settings                          : CABAC / 4 Ref Frames
  7. Format settings, CABAC                   : Yes
  8. Format settings, Reference frames        : 4 frames
  9. Codec ID                                 : V_MPEG4/ISO/AVC
  10. Duration                                 : 1 h 38 min
  11. Bit rate mode                            : Variable
  12. Bit rate                                 : 14.5 Mb/s
  13. Maximum bit rate                         : 15.0 Mb/s
  14. Width                                    : 1 920 pixels
  15. Height                                   : 1 080 pixels
  16. Display aspect ratio                     : 16:9
  17. Frame rate mode                          : Constant
  18. Frame rate                               : 23.976 (24000/1001) FPS
  19. Color space                              : YUV
  20. Chroma subsampling                       : 4:2:0
  21. Bit depth                                : 8 bits
  22. Scan type                                : Progressive
  23. Bits/(Pixel*Frame)                       : 0.292
  24. Stream size                              : 10.0 GiB (98%)
  25. Writing library                          : x264 core 148 r2623 d5b2374
  26. Encoding settings                        : cabac=1 / ref=4 / deblock=1:-1:-1 / analyse=0x3:0x133 / me=umh / subme=9 / psy=1 / psy_rd=1.00:0.15 / mixed_ref=1 / me_range=24 / chroma_me=1 / trellis=2 / 8x8dct=1 / cqm=0 / deadzone=21,11 / fast_pskip=1 / chroma_qp_offset=-3 / threads=34 / lookahead_threads=5 / sliced_threads=0 / nr=150 / decimate=1 / interlaced=0 / bluray_compat=0 / constrained_intra=0 / bframes=8 / b_pyramid=2 / b_adapt=2 / b_bias=0 / direct=3 / weightb=1 / open_gop=0 / weightp=2 / keyint=120 / keyint_min=61 / scenecut=0 / intra_refresh=0 / rc_lookahead=120 / rc=crf / mbtree=1 / crf=18.0 / qcomp=0.60 / qpmin=0 / qpmax=69 / qpstep=4 / vbv_maxrate=15000 / vbv_bufsize=31250 / crf_max=0.0 / nal_hrd=vbr / filler=0 / ip_ratio=1.40 / aq=3:1.00
  27. Default                                  : Yes
  28. Forced                                   : No
  29. Color range                              : Limited
  30. Color primaries                          : BT.709
  31. Transfer characteristics                 : BT.709
  32. Matrix coefficients                      : BT.709

  33. Audio
  34. ID                                       : 2
  35. Format                                   : E-AC-3
  36. Format/Info                              : Enhanced AC-3
  37. Commercial name                          : Dolby Digital Plus
  38. Codec ID                                 : A_EAC3
  39. Duration                                 : 1 h 38 min
  40. Bit rate mode                            : Constant
  41. Bit rate                                 : 224 kb/s
  42. Channel(s)                               : 2 channels
  43. Channel layout                           : L R
  44. Sampling rate                            : 48.0 kHz
  45. Frame rate                               : 31.250 FPS (1536 SPF)
  46. Compression mode                         : Lossy
  47. Stream size                              : 158 MiB (2%)
  48. Language                                 : English
  49. Service kind                             : Complete Main
  50. Default                                  : Yes
  51. Forced                                   : No

  52. Text
  53. ID                                       : 3
  54. Format                                   : UTF-8
  55. Codec ID                                 : S_TEXT/UTF8
  56. Codec ID/Info                            : UTF-8 Plain Text
  57. Duration                                 : 1 h 36 min
  58. Bit rate                                 : 70 b/s
  59. Count of elements                        : 1470
  60. Stream size                              : 49.4 KiB (0%)
  61. Language                                 : English
  62. Default                                  : No
  63. Forced                                   : No

  64. Menu
  65. 00:00:00.000                             : en:Studio Logos
  66. 00:00:18.000                             : en:Robert Johnson Walks to the Crossroads, Opening Credits; Country Road
  67. 00:01:39.000                             : en:Johnson Makes a Recording; McGraw\"s Room
  68. 00:03:52.000                             : en:Eugene Tracks Down Willie Brown; Multiple Locations
  69. 00:06:32.000                             : en:Eugene Tries a New Tactic; Nursing Home
  70. 00:09:22.000                             : enr. Santis Calls Out Eugene; Recital Hall
  71. 00:10:31.000                             : en:Willie Mocks Eugene; Nursing Home
  72. 00:12:19.000                             : enr. Santis Tells Eugene to Examine His Priorities; Dr. Santis\" Office
  73. 00:13:09.000                             : en:Eugene Plays Classical Guitar; Eugene\"s Bedroom
  74. 00:14:23.000                             : en:Eugene Brings Willie an Old Photo; Willie\"s Room
  75. 00:15:09.000                             : en:Young Willie Makes a Deal with Scratch; Crossroads
  76. 00:17:06.000                             : en:Willie Makes Eugene a Promise; Nursing Home
  77. 00:22:33.000                             : en:Eugene and Willie Try to Escape; Nursing Home
  78. 00:24:53.000                             : en:Eugene Buys Two Tickets; Greyhound Station
  79. 00:25:35.000                             : en:Willie Tells Eugene about His Bluesman\"s History; Greyhound Bus
  80. 00:27:46.000                             : en:Willie Proposes an Idea; Greyhound Station
  81. 00:30:04.000                             : en:Willie Continues to Be Demanding; Highway 61
  82. 00:33:14.000                             : en:Willie Mentions He Has Personal Business in the Area; Rest Stop
  83. 00:34:51.000                             : en:Eugene Pawns His Watch for a Guitar; Pawn Shop
  84. 00:36:23.000                             : en:Willie and Eugene Meet Frances; Abandoned House
  85. 00:40:04.000                             : en:Frances Tries to Sneak Off; Outside Abandoned House
  86. 00:40:41.000                             : en:Willie and Eugene Get Ousted by Lloyd; Outside Rural Bar
  87. 00:42:15.000                             : en:Eugene Makes a Move; Multiple Locations
  88. 00:43:04.000                             : en:Eugene, Frances, and Willie Team Up; Hotel Room
  89. 00:46:51.000                             : en:The Pressures of the Road Wear on Eugene; Highway
  90. 00:48:06.000                             : en:Willie Sells Lloyd\"s Car; Junkyard
  91. 00:49:02.000                             : en:Eugene and Frances Argue; Barn
  92. 00:51:39.000                             : en:Eugene and Frances Get Closer; Barn
  93. 00:52:44.000                             : en:The Cops Search for Willie and the Kids; Barn
  94. 00:53:33.000                             : en:Sheriff Tilford Lets the Three Go; Edge of the County
  95. 00:56:30.000                             : en:Willie Pays for a Hotel Room; Hotel
  96. 00:57:20.000                             : en:Eugene Starts to Suspect Willie; Outside Rural Bar
  97. 00:59:22.000                             : en:Eugene Orders a Shot; Western Bar
  98. 01:00:52.000                             : en:The Bartender Defuses a Situation; Western Bar
  99. 01:03:44.000                             : en:Willie Forces Eugene on Stage; Jook House
  100. 01:07:24.000                             : en:Willie and Eugene Argue; Hotel Room
  101. 01:09:31.000                             : en:Willie Has a Nightmare; Hotel Room
  102. 01:10:17.000                             : en:Willie Gives Frances a Gift; Hotel Hallway
  103. 01:11:44.000                             : en:Eugene Awakes to Find Frances Gone; Multiple Locations
  104. 01:13:07.000                             : en:Willie Comes Clean; Hotel Room
  105. 01:16:06.000                             : en:Willie Visits the House of an Old Flame; Boardinghouse
  106. 01:19:22.000                             : en:Scratch\"s Assistant Arrives; Crossroads
  107. 01:21:53.000                             : en:Eugene Makes a Deal with the Devil; Crossroads
  108. 01:24:26.000                             : en:Jack Butler Struts His Stuff; Nightclub
  109. 01:27:09.000                             : en:Eugene and Jack Start to Duel; Nightclub
  110. 01:29:27.000                             : en:Eugene and Jack Exchange Leads; Nightclub
  111. 01:31:40.000                             : en:Eugene Continues to Battle Jack; Nightclub
  112. 01:34:07.000                             : en:Willie and Eugene Shred Together; Nightclub
  113. 01:35:20.000                             : en:Willie Tells Eugene He\"ll Have to Carry On Without Him; Country Road
  114. 01:36:30.000                             : en:End Credits
复制代码


精彩剧照




蓝光高清网提示您 点击下方附件名称 马上开始下载



温馨提示:
本站资源优先使用迅雷下载,迅雷会员下载,速度基本可以跑满宽带
如果遇到无资源或者版权问题无法下载,推荐使用115网盘离线下载(点击查看115网盘离线下载教程


  • 该资源需要您回复以后 刷新网页进行下载操作

  • 1、Crossroads.1986.1080p.AMZN.WEBRip.DDP2.0.x264-QOQ.torrent 51KB 已下载 0 次

加入蓝光高清网VIP会员  无限制下载本站所有资源---点此加入

资源下载、资源播放、字幕使用、无法下载等常见问题---点这里

回复

使用道具 举报

懒得打字嘛,点击右侧快捷回复
高级模式
B Color Image Link Quote Code Smilies 上传

本版积分规则

关注0

粉丝0

帖子45764

发布主题
最新电影 论坛
广告位

Archiver手机版蓝光高清网 ( 渝ICP备18006373号-2 )|网站地图

Powered by Discuz! X3.4  © 2001-2013 Comsenz Inc.