[剧情片] 监狱疯波/劣等阵容 Mean.Machine.2001.1080p.AMZN.WEBRip.DDP5.1.x264-monkee 9.78GB

[复制链接]
蓝鸟VIP会员 永久VIP 发表于 7 天前 | 显示全部楼层 |阅读模式 打印 上一主题 下一主题

马上注册,轻松下载,海量资源,让你轻松玩转社区。

您需要 登录 才可以下载或查看,没有帐号?立即注册

x


译  名 监狱疯波 / 劣等阵容 / 监狱风波 / 神鬼团队
片  名 Mean Machine
年  代 2001
产  地 英国 / 美国
类  别 剧情 / 喜剧 / 运动
语  言 英语
上映日期 2001-12-26
IMDb评分  6.5/10 from 33515 users
IMDb链接  http://www.imdb.com/title/tt0291341
豆瓣评分 7.1/10 from 1335 users
豆瓣链接 https://movie.douban.com/subject/1307631/
片  长 99 分钟
导  演 Barry Skolnick
编  剧 Andrew Day / Charlie Fletcher / Chris Baker
主  演 Vinnie Jones


标  签 英国 | 黑色幽默 | 喜剧 | 英国电影 | 监狱 | 足球 | JasonStatham | 体育

简  介  

  故事发生在英国,丹尼(维尼·琼斯 Vinnie Jones 饰)是一名风头正劲的球星,成功的事业、丰厚的收入、漂亮的女友,丹尼所拥有的一切令他成为了众人羡慕的对象。然而,在一场意外中,丹尼因为醉酒闹事而被投入了监狱,这不仅意味着他将错过一场对于自己来说十分重要的比赛,更意味着,他将失去生活中曾经拥有的一切。
  监狱里有一支由狱警们所组成的足球队,一天,典狱长(戴维·海明斯 David Hemmings 饰)找到了心灰意冷的丹尼,希望他能够成为球队的代理教练,帮助球队获得季度比赛的冠军。然而,丹尼却提出了一个令典狱长惊讶的要求,他希望亲自挑选犯人,重组球队。


该资源信息参数
  1. Video
  2. ID                                       : 1
  3. Format                                   : AVC
  4. Format/Info                              : Advanced Video Codec
  5. Format profile                           : <a href="/cdn-cgi/l/email-protection" class="__cf_email__" data-cfemail="1d55747a755d5129">[email protected]</a>
  6. Format settings                          : CABAC / 4 Ref Frames
  7. Format settings, CABAC                   : Yes
  8. Format settings, Reference frames        : 4 frames
  9. Codec ID                                 : V_MPEG4/ISO/AVC
  10. Duration                                 : 1 h 39 min
  11. Bit rate mode                            : Variable
  12. Bit rate                                 : 13.5 Mb/s
  13. Maximum bit rate                         : 15.0 Mb/s
  14. Width                                    : 1 920 pixels
  15. Height                                   : 1 080 pixels
  16. Display aspect ratio                     : 16:9
  17. Frame rate mode                          : Constant
  18. Frame rate                               : 23.976 (24000/1001) FPS
  19. Color space                              : YUV
  20. Chroma subsampling                       : 4:2:0
  21. Bit depth                                : 8 bits
  22. Scan type                                : Progressive
  23. Bits/(Pixel*Frame)                       : 0.271
  24. Stream size                              : 9.33 GiB (95%)
  25. Default                                  : Yes
  26. Forced                                   : No
  27. Color range                              : Limited
  28. Color primaries                          : BT.709
  29. Transfer characteristics                 : BT.709
  30. Matrix coefficients                      : BT.709

  31. Audio
  32. ID                                       : 2
  33. Format                                   : E-AC-3
  34. Format/Info                              : Enhanced AC-3
  35. Commercial name                          : Dolby Digital Plus
  36. Codec ID                                 : A_EAC3
  37. Duration                                 : 1 h 39 min
  38. Bit rate mode                            : Constant
  39. Bit rate                                 : 640 kb/s
  40. Channel(s)                               : 6 channels
  41. Channel layout                           : L R C LFE Ls Rs
  42. Sampling rate                            : 48.0 kHz
  43. Frame rate                               : 31.250 FPS (1536 SPF)
  44. Compression mode                         : Lossy
  45. Stream size                              : 454 MiB (5%)
  46. Language                                 : English
  47. Service kind                             : Complete Main
  48. Default                                  : Yes
  49. Forced                                   : No

  50. Text #1
  51. ID                                       : 3
  52. Format                                   : UTF-8
  53. Codec ID                                 : S_TEXT/UTF8
  54. Codec ID/Info                            : UTF-8 Plain Text
  55. Duration                                 : 1 h 38 min
  56. Bit rate                                 : 69 b/s
  57. Count of elements                        : 1509
  58. Stream size                              : 50.2 KiB (0%)
  59. Language                                 : English
  60. Default                                  : No
  61. Forced                                   : No

  62. Text #2
  63. ID                                       : 4
  64. Format                                   : UTF-8
  65. Codec ID                                 : S_TEXT/UTF8
  66. Codec ID/Info                            : UTF-8 Plain Text
  67. Duration                                 : 1 h 38 min
  68. Bit rate                                 : 73 b/s
  69. Count of elements                        : 1642
  70. Stream size                              : 53.4 KiB (0%)
  71. Title                                    : SDH
  72. Language                                 : English
  73. Default                                  : No
  74. Forced                                   : No
复制代码


精彩剧照




蓝光高清网提示您 点击下方附件名称 马上开始下载



温馨提示:
本站资源优先使用迅雷下载,迅雷会员下载,速度基本可以跑满宽带
如果遇到无资源或者版权问题无法下载,推荐使用115网盘离线下载(点击查看115网盘离线下载教程


  • 该资源需要您回复以后 刷新网页进行下载操作

  • 1、Mean.Machine.2001.1080p.AMZN.WEBRip.DDP5.1.x264-monkee.torrent 49KB 已下载 0 次

加入蓝光高清网VIP会员  无限制下载本站所有资源---点此加入

资源下载、资源播放、字幕使用、无法下载等常见问题---点这里

回复

使用道具 举报

懒得打字嘛,点击右侧快捷回复
高级模式
B Color Image Link Quote Code Smilies 上传

本版积分规则

关注0

粉丝0

帖子45739

发布主题
最新电影 论坛
广告位

Archiver手机版蓝光高清网 ( 渝ICP备18006373号-2 )|网站地图

Powered by Discuz! X3.4  © 2001-2013 Comsenz Inc.