[惊悚片] 马大姐/大妈 Ma.2019.1080p.WEB-DL.AAC2.0.H264-FGT 3.36GB

[复制链接]
蓝鸟VIP会员 永久VIP 发表于 7 天前 | 显示全部楼层 |阅读模式 打印 上一主题 下一主题

马上注册,轻松下载,海量资源,让你轻松玩转社区。

您需要 登录 才可以下载或查看,没有帐号?立即注册

x


译  名 马大姐 / 大妈 / 妈妈 / 恐怖大妈(港 / 台) / 老母
片  名 Ma
年  代 2019
产  地 美国
类  别 惊悚 / 恐怖
语  言 英语
上映日期 2019-05-31(美国)
IMDb评分  5.8/10 from 9128 users
IMDb链接  http://www.imdb.com/title/tt7958736
豆瓣评分 5.6/10 from 397 users
豆瓣链接 https://movie.douban.com/subject/30137082/
片  长 99分钟
导  演 泰特·泰勒 Tate Taylor
编  剧 斯科蒂·兰德斯 Scotty Landes
主  演 奥克塔维亚·斯宾瑟 Octavia Spencer
       米西·派勒 Missi Pyle
       卢克·伊万斯 Luke Evans
       朱丽叶特·刘易斯 Juliette Lewis
       戴安娜·希维斯 Diana Silvers
       艾莉森·珍妮 Allison Janney
       麦克利·米勒 McKaley Miller
       多米尼克·伯吉斯 Dominic Burgess
       维克托·特平 Victor Turpin
       丹特·布朗 Dante Brown
       科里·福尔马尼斯 Corey Fogelmanis


标  签 恐怖 | 惊悚 | 美国 | 悬疑 | 2019 | 剧情 | 黑色幽默 | 霸凌

简  介  

  故事讲述一群年轻人结识了一个陌生女子,陌生人热情地邀请这群年轻人在自己的家中开Party,然而意外和恐怖的事情却接连发生……


该资源信息参数
  1. Video
  2. ID                                       : 1
  3. Format                                   : AVC
  4. Format/Info                              : Advanced Video Codec
  5. Format profile                           : <a href="/cdn-cgi/l/email-protection" class="__cf_email__" data-cfemail="3078595758707c04">[email protected]</a>
  6. Format settings                          : CABAC / 5 Ref Frames
  7. Format settings, CABAC                   : Yes
  8. Format settings, Reference frames        : 5 frames
  9. Codec ID                                 : V_MPEG4/ISO/AVC
  10. Duration                                 : 1 h 39 min
  11. Bit rate                                 : 4 583 kb/s
  12. Width                                    : 1 916 pixels
  13. Height                                   : 800 pixels
  14. Display aspect ratio                     : 2.40:1
  15. Frame rate mode                          : Constant
  16. Frame rate                               : 23.976 FPS
  17. Color space                              : YUV
  18. Chroma subsampling                       : 4:2:0
  19. Bit depth                                : 8 bits
  20. Scan type                                : Progressive
  21. Bits/(Pixel*Frame)                       : 0.125
  22. Stream size                              : 3.18 GiB (95%)
  23. Title                                    : Ma.2019.1080p.WEB-DL.AAC2.0.H264-FGT
  24. Language                                 : English
  25. Default                                  : Yes
  26. Forced                                   : No
  27. Color range                              : Limited
  28. Color primaries                          : BT.709
  29. Transfer characteristics                 : BT.709
  30. Matrix coefficients                      : BT.709

  31. Audio
  32. ID                                       : 2
  33. Format                                   : AAC LC
  34. Format/Info                              : Advanced Audio Codec Low Complexity
  35. Codec ID                                 : A_AAC-2
  36. Duration                                 : 1 h 39 min
  37. Bit rate                                 : 256 kb/s
  38. Channel(s)                               : 2 channels
  39. Channel layout                           : L R
  40. Sampling rate                            : 48.0 kHz
  41. Frame rate                               : 46.875 FPS (1024 SPF)
  42. Compression mode                         : Lossy
  43. Stream size                              : 182 MiB (5%)
  44. Title                                    : Ma.2019.1080p.WEB-DL.AAC2.0.H264-FGT
  45. Language                                 : English
  46. Default                                  : Yes
  47. Forced                                   : No

  48. Text #1
  49. ID                                       : 3
  50. Format                                   : UTF-8
  51. Codec ID                                 : S_TEXT/UTF8
  52. Codec ID/Info                            : UTF-8 Plain Text
  53. Duration                                 : 1 h 38 min
  54. Bit rate                                 : 67 b/s
  55. Count of elements                        : 1734
  56. Stream size                              : 49.0 KiB (0%)
  57. Language                                 : English
  58. Default                                  : Yes
  59. Forced                                   : No

  60. Text #2
  61. ID                                       : 4
  62. Format                                   : UTF-8
  63. Codec ID                                 : S_TEXT/UTF8
  64. Codec ID/Info                            : UTF-8 Plain Text
  65. Duration                                 : 1 h 39 min
  66. Bit rate                                 : 80 b/s
  67. Count of elements                        : 2012
  68. Stream size                              : 58.8 KiB (0%)
  69. Title                                    : SDH
  70. Language                                 : English
  71. Default                                  : No
  72. Forced                                   : No

  73. Menu
  74. 00:00:00.000                             : :1
  75. 00:05:08.808                             : :2
  76. 00:10:43.349                             : :3
  77. 00:15:53.742                             : :4
  78. 00:19:28.164                             : :5
  79. 00:25:45.207                             : :6
  80. 00:30:03.797                             : :7
  81. 00:35:03.387                             : :8
  82. 00:40:20.787                             : :9
  83. 00:45:14.830                             : :10
  84. 00:50:09.958                             : :11
  85. 00:54:35.682                             : :12
  86. 00:57:50.625                             : :13
  87. 01:02:12.010                             : :14
  88. 01:06:10.247                             : :15
  89. 01:11:46.290                             : :16
  90. 01:16:24.525                             : :17
  91. 01:20:31.854                             : :18
  92. 01:25:24.312                             : :19
  93. 01:32:42.375                             : :20
复制代码


精彩剧照




蓝光高清网提示您 点击下方附件名称 马上开始下载



温馨提示:
本站资源优先使用迅雷下载,迅雷会员下载,速度基本可以跑满宽带
如果遇到无资源或者版权问题无法下载,推荐使用115网盘离线下载(点击查看115网盘离线下载教程


  • 该资源需要您回复以后 刷新网页进行下载操作

  • 1、Ma.2019.1080p.WEB-DL.AAC2.0.H264-FGT.torrent 34KB 已下载 0 次

加入蓝光高清网VIP会员  无限制下载本站所有资源---点此加入

资源下载、资源播放、字幕使用、无法下载等常见问题---点这里

回复

使用道具 举报

精彩评论4

人生本无梦 发表于 7 天前 | 显示全部楼层
好电影 收藏了

加入蓝光高清网VIP会员  无限制下载本站所有资源---点此加入

资源下载、资源播放、字幕使用、无法下载等常见问题---点这里

回复

使用道具 举报

^枫^ 发表于 7 天前 | 显示全部楼层
下载试一试

加入蓝光高清网VIP会员  无限制下载本站所有资源---点此加入

资源下载、资源播放、字幕使用、无法下载等常见问题---点这里

回复

使用道具 举报

keencom 发表于 7 天前 | 显示全部楼层
哈哈 谢谢 谢谢

加入蓝光高清网VIP会员  无限制下载本站所有资源---点此加入

资源下载、资源播放、字幕使用、无法下载等常见问题---点这里

回复

使用道具 举报

Ni9htkids 发表于 7 天前 | 显示全部楼层
终于找到了  谢谢分享

加入蓝光高清网VIP会员  无限制下载本站所有资源---点此加入

资源下载、资源播放、字幕使用、无法下载等常见问题---点这里

回复

使用道具 举报

懒得打字嘛,点击右侧快捷回复
高级模式
B Color Image Link Quote Code Smilies 上传

本版积分规则

关注0

粉丝0

帖子45738

发布主题
最新电影 论坛
广告位

Archiver手机版蓝光高清网 ( 渝ICP备18006373号-2 )|网站地图

Powered by Discuz! X3.4  © 2001-2013 Comsenz Inc.