[剧情片] 天生我蠢必有用 American.Loser.2007.1080p.AMZN.WEBRip.DDP5.1.x264-monkee 7.46GB

[复制链接]
蓝鸟VIP会员 永久VIP 发表于 7 天前 | 显示全部楼层 |阅读模式 打印 上一主题 下一主题

马上注册,轻松下载,海量资源,让你轻松玩转社区。

您需要 登录 才可以下载或查看,没有帐号?立即注册

x


译  名 天生我蠢必有用
片  名 Trainwreck: My Life as an Idiot
年  代 2007
产  地 美国
类  别 剧情 / 喜剧
语  言 英语
上映日期 2008-09-19
IMDb评分  5.6/10 from 2583 users
IMDb链接  http://www.imdb.com/title/tt0783601
豆瓣评分 0/10 from 0 users
豆瓣链接 https://movie.douban.com/subject/2032228/
片  长 Greece: 90 分钟
导  演 Tod Harrison Williams
主  演 西恩·威廉·斯科特 Seann William Scott
      格雷琴·莫尔 Gretchen Mol
      Jeff Garlin
      Paul Scheer
      Matt Mulhern
      Tonye Patano


标  签 喜剧 | 美国 | 爱情 | 心理 | 美国电影 | 电影 | SeannWilliamScott | 心理学电影

简  介  

  这是一个很戏剧化的搞笑片。故事的主人公是一位典型的“衰人”,集学习障碍症、Tourette综合征、平衡能力缺乏症、酗酒症于一身。从曼哈顿来的他,邂逅了一个来纽约掘金的姑娘,后者鼓励他可以将这数大缺点整合起来,做些正常人无法做到的事情……



该资源信息参数
  1. Video
  2. ID                                       : 1
  3. Format                                   : AVC
  4. Format/Info                              : Advanced Video Codec
  5. Format profile                           : <a href="/cdn-cgi/l/email-protection" class="__cf_email__" data-cfemail="eaa2838d82aaa6de">[email protected]</a>
  6. Format settings                          : CABAC / 4 Ref Frames
  7. Format settings, CABAC                   : Yes
  8. Format settings, Reference frames        : 4 frames
  9. Codec ID                                 : V_MPEG4/ISO/AVC
  10. Duration                                 : 1 h 34 min
  11. Bit rate mode                            : Variable
  12. Bit rate                                 : 10.7 Mb/s
  13. Maximum bit rate                         : 15.0 Mb/s
  14. Width                                    : 1 920 pixels
  15. Height                                   : 1 080 pixels
  16. Display aspect ratio                     : 16:9
  17. Frame rate mode                          : Constant
  18. Frame rate                               : 23.976 (24000/1001) FPS
  19. Color space                              : YUV
  20. Chroma subsampling                       : 4:2:0
  21. Bit depth                                : 8 bits
  22. Scan type                                : Progressive
  23. Bits/(Pixel*Frame)                       : 0.215
  24. Stream size                              : 7.04 GiB (94%)
  25. Default                                  : Yes
  26. Forced                                   : No
  27. Color range                              : Limited
  28. Color primaries                          : BT.709
  29. Transfer characteristics                 : BT.709
  30. Matrix coefficients                      : BT.709

  31. Audio
  32. ID                                       : 2
  33. Format                                   : E-AC-3
  34. Format/Info                              : Enhanced AC-3
  35. Commercial name                          : Dolby Digital Plus
  36. Codec ID                                 : A_EAC3
  37. Duration                                 : 1 h 34 min
  38. Bit rate mode                            : Constant
  39. Bit rate                                 : 640 kb/s
  40. Channel(s)                               : 6 channels
  41. Channel layout                           : L R C LFE Ls Rs
  42. Sampling rate                            : 48.0 kHz
  43. Frame rate                               : 31.250 FPS (1536 SPF)
  44. Compression mode                         : Lossy
  45. Stream size                              : 432 MiB (6%)
  46. Language                                 : English
  47. Service kind                             : Complete Main
  48. Default                                  : Yes
  49. Forced                                   : No

  50. Text
  51. ID                                       : 3
  52. Format                                   : UTF-8
  53. Codec ID                                 : S_TEXT/UTF8
  54. Codec ID/Info                            : UTF-8 Plain Text
  55. Duration                                 : 1 h 33 min
  56. Bit rate                                 : 78 b/s
  57. Count of elements                        : 1694
  58. Stream size                              : 54.0 KiB (0%)
  59. Language                                 : English
  60. Default                                  : No
  61. Forced                                   : No
复制代码


精彩剧照




蓝光高清网提示您 点击下方附件名称 马上开始下载



温馨提示:
本站资源优先使用迅雷下载,迅雷会员下载,速度基本可以跑满宽带
如果遇到无资源或者版权问题无法下载,推荐使用115网盘离线下载(点击查看115网盘离线下载教程


  • 该资源需要您回复以后 刷新网页进行下载操作

  • 1、American.Loser.2007.1080p.AMZN.WEBRip.DDP5.1.x264-monkee.torrent 38KB 已下载 0 次

加入蓝光高清网VIP会员  无限制下载本站所有资源---点此加入

资源下载、资源播放、字幕使用、无法下载等常见问题---点这里

回复

使用道具 举报

精彩评论1

月望魂 发表于 7 天前 | 显示全部楼层
谢谢版主 希望坚持下去 好资源

加入蓝光高清网VIP会员  无限制下载本站所有资源---点此加入

资源下载、资源播放、字幕使用、无法下载等常见问题---点这里

回复

使用道具 举报

懒得打字嘛,点击右侧快捷回复
高级模式
B Color Image Link Quote Code Smilies 上传

本版积分规则

关注0

粉丝0

帖子45737

发布主题
最新电影 论坛
广告位

Archiver手机版蓝光高清网 ( 渝ICP备18006373号-2 )|网站地图

Powered by Discuz! X3.4  © 2001-2013 Comsenz Inc.