[喜剧片] 活女丧尸夜 Night.Of.The.Living.Deb.2015.1080p.BluRay.REMUX.AVC.DTS-HD.MA.5.1-FGT 13.81GB

[复制链接]
蓝鸟VIP会员 永久VIP 发表于 2019-9-16 12:18:20 | 显示全部楼层 |阅读模式 打印 上一主题 下一主题

马上注册,轻松下载,海量资源,让你轻松玩转社区。

您需要 登录 才可以下载或查看,没有帐号?立即注册

x
活女丧尸夜 Night.Of.The.Living.Deb.2015.1080p.BluRay.REMUX.AVC.DTS-HD.MA.5.1-FGT 13.81GB-1.jpg
◎译  名 活女丧尸夜
◎片  名 Night of the Living Deb
◎年  代 2015
◎国  家 美国
◎类  别 喜剧
◎语  言 英语
◎上映日期 2014-10-08(美国)
◎IMDb评分  5.6/10 from 1,010 users
◎IMDb链接  http://www.imdb.com/title/tt3602128/
◎豆瓣评分 4.4/10 from 64 users
◎豆瓣链接 https://movie.douban.com/subject/25887337/
◎导  演 Kyle Rankin
◎主  演 大卫·克鲁霍尔特兹 David Krumholtz
      雷·怀斯 Ray Wise
      玛丽亚·泰耶尔 Maria Thayer
      迈克尔·卡西迪 Michael Cassidy
      Syd Wilder

◎简  介

  After a girls" night out, endearingly awkward Deb wakes up in the apartment of the most attractive guy in Portland, Maine. She"s thrilled, but she can"t remember much of what got her there. Pretty boy Ryan only knows it was a mistake and ushers her out the door... into a full-scale zombie apocalypse. Now, a walk of shame becomes a fight for survival as the mismatched pair discovers that the only thing scarier than trusting someone with your life... is trusting them with your heart.


该资源信息参数


  1. Video
  2. ID                                       : 1
  3. Format                                   : AVC
  4. Format/Info                              : Advanced Video Codec
  5. Format profile                           : High@L4.1
  6. Format settings, CABAC                   : Yes
  7. Format settings, ReFrames                : 4 frames
  8. Codec ID                                 : V_MPEG4/ISO/AVC
  9. Duration                                 : 1h 24mn
  10. Bit rate mode                            : Variable
  11. Maximum bit rate                         : 35.0 Mbps
  12. Width                                    : 1 920 pixels
  13. Height                                   : 1 080 pixels
  14. Display aspect ratio                     : 16:9
  15. Frame rate mode                          : Constant
  16. Frame rate                               : 23.976 (24000/1001) fps
  17. Standard                                 : NTSC
  18. Color space                              : YUV
  19. Chroma subsampling                       : 4:2:0
  20. Bit depth                                : 8 bits
  21. Scan type                                : Progressive
  22. Title                                    : Night.Of.The.Living.Deb.2015.1080p.BluRay.REMUX.AVC.DTS-HD.MA.5.1-FGT
  23. Language                                 : English
  24. Default                                  : No
  25. Forced                                   : No
  26. Color range                              : Limited
  27. Color primaries                          : BT.709
  28. Transfer characteristics                 : BT.709
  29. Matrix coefficients                      : BT.709

  30. Audio #1
  31. ID                                       : 2
  32. Format                                   : DTS
  33. Format/Info                              : Digital Theater Systems
  34. Format profile                           : MA / Core
  35. Mode                                     : 16
  36. Format settings, Endianness              : Big
  37. Codec ID                                 : A_DTS
  38. Duration                                 : 1h 24mn
  39. Bit rate mode                            : Variable / Constant
  40. Bit rate                                 : Unknown / 1 509 Kbps
  41. Channel(s)                               : 6 channels
  42. Channel positions                        : Front: L C R, Side: L R, LFE
  43. Sampling rate                            : 48.0 KHz
  44. Frame rate                               : 93.750 fps (512 spf)
  45. Bit depth                                : 16 bits
  46. Compression mode                         : Lossless / Lossy
  47. Title                                    : Night.Of.The.Living.Deb.2015.1080p.BluRay.REMUX.AVC.DTS-HD.MA.5.1-FGT
  48. Language                                 : English
  49. Default                                  : Yes
  50. Forced                                   : No

  51. Audio #2
  52. ID                                       : 3
  53. Format                                   : DTS
  54. Format/Info                              : Digital Theater Systems
  55. Mode                                     : 16
  56. Format settings, Endianness              : Big
  57. Codec ID                                 : A_DTS
  58. Duration                                 : 1h 24mn
  59. Bit rate mode                            : Constant
  60. Bit rate                                 : 1 509 Kbps
  61. Channel(s)                               : 6 channels
  62. Channel positions                        : Front: L C R, Side: L R, LFE
  63. Sampling rate                            : 48.0 KHz
  64. Frame rate                               : 93.750 fps (512 spf)
  65. Bit depth                                : 16 bits
  66. Compression mode                         : Lossy
  67. Stream size                              : 912 MiB (6%)
  68. Title                                    : Night.Of.The.Living.Deb.2015.1080p.BluRay.REMUX.AVC.DTS-HD.MA.5.1-FGT
  69. Language                                 : English
  70. Default                                  : No
  71. Forced                                   : No

  72. Audio #3
  73. ID                                       : 4
  74. Format                                   : PCM
  75. Codec ID                                 : A_PCM/INT/LIT
  76. Duration                                 : 1h 24mn
  77. Bit rate mode                            : Constant
  78. Channel(s)                               : 2 channels
  79. Sampling rate                            : 48.0 KHz
  80. Bit depth                                : 16 bits
  81. Title                                    : Night.Of.The.Living.Deb.2015.1080p.BluRay.REMUX.AVC.DTS-HD.MA.5.1-FGT
  82. Language                                 : English
  83. Default                                  : No
  84. Forced                                   : No

  85. Audio #4
  86. ID                                       : 5
  87. Format                                   : AC-3
  88. Format/Info                              : Audio Coding 3
  89. Mode extension                           : CM (complete main)
  90. Format settings, Endianness              : Big
  91. Codec ID                                 : A_AC3
  92. Duration                                 : 1h 24mn
  93. Bit rate mode                            : Constant
  94. Bit rate                                 : 256 Kbps
  95. Channel(s)                               : 2 channels
  96. Channel positions                        : Front: L R
  97. Sampling rate                            : 48.0 KHz
  98. Frame rate                               : 31.250 fps (1536 spf)
  99. Compression mode                         : Lossy
  100. Stream size                              : 155 MiB (1%)
  101. Title                                    : Night.Of.The.Living.Deb.2015.1080p.BluRay.REMUX.AVC.DTS-HD.MA.5.1-FGT
  102. Language                                 : English
  103. Default                                  : No
  104. Forced                                   : No

  105. Text
  106. ID                                       : 6
  107. Format                                   : PGS
  108. Muxing mode                              : zlib
  109. Codec ID                                 : S_HDMV/PGS
  110. Codec ID/Info                            : Picture based subtitle format used on BDs/HD-DVDs
  111. Title                                    : English-PGS
  112. Language                                 : English
  113. Default                                  : No
  114. Forced                                   : No

  115. Menu
  116. 00:00:00.000                             : en:Chapter 01
  117. 00:02:42.745                             : en:Chapter 02
  118. 00:08:42.396                             : en:Chapter 03
  119. 00:11:27.144                             : en:Chapter 04
  120. 00:15:30.012                             : en:Chapter 05
  121. 00:19:14.486                             : en:Chapter 06
  122. 00:23:21.858                             : en:Chapter 07
  123. 00:27:13.465                             : en:Chapter 08
  124. 00:31:30.638                             : en:Chapter 09
  125. 00:35:02.892                             : en:Chapter 10
  126. 00:39:26.822                             : en:Chapter 11
  127. 00:43:42.578                             : en:Chapter 12
  128. 00:46:28.035                             : en:Chapter 13
  129. 00:50:22.019                             : en:Chapter 14
  130. 00:54:05.575                             : en:Chapter 15
  131. 01:00:59.155                             : en:Chapter 16
  132. 01:03:48.783                             : en:Chapter 17
  133. 01:06:58.305                             : en:Chapter 18
  134. 01:09:56.025                             : en:Chapter 19
  135. 01:13:40.916                             : en:Chapter 20
  136. 01:19:08.994                             : en:Chapter 21



复制代码


精彩剧照

活女丧尸夜 Night.Of.The.Living.Deb.2015.1080p.BluRay.REMUX.AVC.DTS-HD.MA.5.1-FGT 13.81GB-2.png 活女丧尸夜 Night.Of.The.Living.Deb.2015.1080p.BluRay.REMUX.AVC.DTS-HD.MA.5.1-FGT 13.81GB-3.png 活女丧尸夜 Night.Of.The.Living.Deb.2015.1080p.BluRay.REMUX.AVC.DTS-HD.MA.5.1-FGT 13.81GB-4.png 活女丧尸夜 Night.Of.The.Living.Deb.2015.1080p.BluRay.REMUX.AVC.DTS-HD.MA.5.1-FGT 13.81GB-5.png 活女丧尸夜 Night.Of.The.Living.Deb.2015.1080p.BluRay.REMUX.AVC.DTS-HD.MA.5.1-FGT 13.81GB-6.png 活女丧尸夜 Night.Of.The.Living.Deb.2015.1080p.BluRay.REMUX.AVC.DTS-HD.MA.5.1-FGT 13.81GB-7.png

蓝光高清网提示您 点击下方附件名称 马上开始下载

Night.Of.The.Living.Deb.2015.1080p.BluRay.REMUX.AVC.DTS-HD.MA.5.1-FGT.torrent (69.78 KB, 下载次数: 0)

加入蓝光高清网VIP会员  无限制下载本站所有资源---点此加入

资源下载、资源播放、字幕使用、无法下载等常见问题---点这里

回复

使用道具 举报

懒得打字嘛,点击右侧快捷回复
您需要登录后才可以回帖 登录 | 立即注册

本版积分规则

关注0

粉丝0

帖子66311

发布主题
最新电影 论坛
广告位
联系我们
点击这里联系客服

服务时间:
周一到周日8:00-23:30

  • 打开微信扫一扫
    关注公众号

  • 手机QQ扫一扫
    添加客服

Archiver手机版蓝光高清网 ( 渝ICP备18006373号-2 )|网站地图

Powered by Discuz! X3.4  © 2001-2013 Comsenz Inc.