[剧情片] 爱国者之日/爱国者行动 Patriots.Day.2016.1080p.BluRay.REMUX.AVC.DTS-HD.MA.7.1-FGT 28.25GB

[复制链接]
蓝鸟VIP会员 永久VIP 发表于 2019-9-16 16:22:13 | 显示全部楼层 |阅读模式 打印 上一主题 下一主题

马上注册,轻松下载,海量资源,让你轻松玩转社区。

您需要 登录 才可以下载或查看,没有帐号?立即注册

x
爱国者之日/爱国者行动 Patriots.Day.2016.1080p.BluRay.REMUX.AVC.DTS-HD.MA.7.1-FGT 28.25GB-1.jpg
◎译  名 爱国者之日 / 爱国者行动 / 恐袭 波士顿马拉松 / 爱国者日
◎片  名 爱国者之日 Patriots Day
◎年  代 2016
◎国  家 美国
◎类  别 剧情 / 惊悚 / 历史
◎语  言 英语
◎上映日期 2016-11-17(AFI电影节) / 2017-01-13(美国)
◎IMDb评分  7.5/10 from 20,682 users
◎IMDb链接  http://www.imdb.com/title/tt4572514/
◎豆瓣评分 8.0/10 from 4262 users
◎豆瓣链接 https://movie.douban.com/subject/26357945/
◎片  长 133分钟
◎导  演 彼得·博格
◎主  演 马克·沃尔伯格 Mark Wahlberg
      米歇尔·莫纳汉 Michelle Monaghan
      J·K·西蒙斯 J.K. Simmons
      约翰·古德曼 John Goodman
      梅莉莎·班诺伊 Melissa Benoist
      凯文·贝肯 Kevin Bacon
      亚历克斯·沃尔夫 Alex Wolff
      蕾切尔·布罗斯纳安 Rachel Brosnahan
      埃里卡·麦克德莫特 Erica McDermott
      克里斯朵夫·奥谢 Christopher O"Shea
      文森特·库拉托拉 Vincent Curatola
      詹姆斯·科尔比 James Colby
      欧阳万成 Jimmy O. Yang

◎简  介 

  所谓“爱国者日”是指每年4月19日——美国的部分州为纪念独立战争而设立的纪念日,波士顿马拉松比赛就是为庆祝这个节日而举办的。
  2013年4月15日下午,在美国马萨诸塞州波士顿科普里广场的117届波士顿马拉松终点附近,突然发生爆炸,造成3人死亡,上百人受伤。这三名遇难者分别是23岁来自中国辽宁沈阳的波士顿大学研究生吕令子、8岁本地男孩马丁·理查德(Martin Richard)和29岁餐厅经理克里斯尔·坎贝尔(Krystle Campbell)。
  随后警方根据目击者描述和监控录像,迅速锁定该恐怖袭击的嫌犯为26岁的塔米尔南·沙尼耶夫(Tamerlan Tsarnaev)和19岁的乔卡·沙尼耶夫(Dzhokhar A. Tsarnaev)兄弟,他俩于十年前从车臣来到美国定居。在追捕过程中哥哥塔米尔南·沙尼耶夫被警方击中后不治身亡,弟弟乔卡·沙尼耶夫则在同一天(4月19日)在一所一民宅后停放的小船里被警方抓获。
  《爱国者日》计划今年秋季在波士顿开机,J·K·西蒙斯和马克·沃尔伯格将饰演两名参与追捕的波士顿警察。

◎获奖情况 

  第88届美国国家评论协会奖 (2016)
  年度佳片(提名)



该资源信息参数


  1. Video
  2. ID                                       : 1
  3. Format                                   : AVC
  4. Format/Info                              : Advanced Video Codec
  5. Format profile                           : High@L4.1
  6. Format settings, CABAC                   : Yes
  7. Format settings, ReFrames                : 4 frames
  8. Codec ID                                 : V_MPEG4/ISO/AVC
  9. Duration                                 : 2h 13mn
  10. Bit rate mode                            : Variable
  11. Maximum bit rate                         : 35.0 Mbps
  12. Width                                    : 1 920 pixels
  13. Height                                   : 1 080 pixels
  14. Display aspect ratio                     : 16:9
  15. Frame rate mode                          : Constant
  16. Frame rate                               : 23.976 (24000/1001) fps
  17. Standard                                 : NTSC
  18. Color space                              : YUV
  19. Chroma subsampling                       : 4:2:0
  20. Bit depth                                : 8 bits
  21. Scan type                                : Progressive
  22. Title                                    : Patriots.Day.2016.1080p.BluRay.REMUX.AVC.DTS-HD.MA.7.1-FGT
  23. Language                                 : English
  24. Default                                  : No
  25. Forced                                   : No
  26. Color range                              : Limited
  27. Color primaries                          : BT.709
  28. Transfer characteristics                 : BT.709
  29. Matrix coefficients                      : BT.709

  30. Audio #1
  31. ID                                       : 2
  32. Format                                   : DTS
  33. Format/Info                              : Digital Theater Systems
  34. Format profile                           : X / MA / Core
  35. Mode                                     : 16
  36. Format settings, Endianness              : Big
  37. Codec ID                                 : A_DTS
  38. Bit rate mode                            : Variable / Variable / Constant
  39. Bit rate                                 : Unknown / Unknown / 1 509 Kbps
  40. Channel(s)                               : Object Based / 8 channels / 6 channels
  41. Channel positions                        : Object Based / Front: L C R, Side: L R, Back: L R, LFE / Front: L C R, Side: L R, LFE
  42. Sampling rate                            :  / 48.0 KHz / 48.0 KHz
  43. Frame rate                               : 93.750 fps (512 spf)
  44. Bit depth                                :  / 24 bits / 24 bits
  45. Compression mode                         :  / Lossless / Lossy
  46. Title                                    : Patriots.Day.2016.1080p.BluRay.REMUX.AVC.DTS-HD.MA.7.1-FGT
  47. Language                                 : English
  48. Default                                  : Yes
  49. Forced                                   : No

  50. Audio #2
  51. ID                                       : 3
  52. Format                                   : DTS
  53. Format/Info                              : Digital Theater Systems
  54. Mode                                     : 16
  55. Format settings, Endianness              : Big
  56. Codec ID                                 : A_DTS
  57. Duration                                 : 2h 13mn
  58. Bit rate mode                            : Constant
  59. Bit rate                                 : 1 509 Kbps
  60. Channel(s)                               : 6 channels
  61. Channel positions                        : Front: L C R, Side: L R, LFE
  62. Sampling rate                            : 48.0 KHz
  63. Frame rate                               : 93.750 fps (512 spf)
  64. Bit depth                                : 24 bits
  65. Compression mode                         : Lossy
  66. Stream size                              : 1.40GB (5%)
  67. Title                                    : Patriots.Day.2016.1080p.BluRay.REMUX.AVC.DTS-HD.MA.7.1-FGT
  68. Language                                 : English
  69. Default                                  : No
  70. Forced                                   : No

  71. Audio #3
  72. ID                                       : 4
  73. Format                                   : AC-3
  74. Format/Info                              : Audio Coding 3
  75. Mode extension                           : CM (complete main)
  76. Format settings, Endianness              : Big
  77. Codec ID                                 : A_AC3
  78. Duration                                 : 2h 13mn
  79. Bit rate mode                            : Constant
  80. Bit rate                                 : 640 Kbps
  81. Channel(s)                               : 6 channels
  82. Channel positions                        : Front: L C R, Side: L R, LFE
  83. Sampling rate                            : 48.0 KHz
  84. Frame rate                               : 31.250 fps (1536 spf)
  85. Compression mode                         : Lossy
  86. Stream size                              : 610 MiB (2%)
  87. Title                                    : Patriots.Day.2016.1080p.BluRay.REMUX.AVC.DTS-HD.MA.7.1-FGT
  88. Language                                 : Spanish
  89. Default                                  : No
  90. Forced                                   : No

  91. Audio #4
  92. ID                                       : 5
  93. Format                                   : AC-3
  94. Format/Info                              : Audio Coding 3
  95. Mode extension                           : CM (complete main)
  96. Format settings, Endianness              : Big
  97. Codec ID                                 : A_AC3
  98. Duration                                 : 2h 13mn
  99. Bit rate mode                            : Constant
  100. Bit rate                                 : 640 Kbps
  101. Channel(s)                               : 6 channels
  102. Channel positions                        : Front: L C R, Side: L R, LFE
  103. Sampling rate                            : 48.0 KHz
  104. Frame rate                               : 31.250 fps (1536 spf)
  105. Compression mode                         : Lossy
  106. Stream size                              : 610 MiB (2%)
  107. Title                                    : Patriots.Day.2016.1080p.BluRay.REMUX.AVC.DTS-HD.MA.7.1-FGT
  108. Language                                 : French
  109. Default                                  : No
  110. Forced                                   : No

  111. Audio #5
  112. ID                                       : 6
  113. Format                                   : AC-3
  114. Format/Info                              : Audio Coding 3
  115. Format profile                           : Dolby Digital
  116. Mode extension                           : CM (complete main)
  117. Format settings, Endianness              : Big
  118. Codec ID                                 : A_AC3
  119. Duration                                 : 2h 13mn
  120. Bit rate mode                            : Constant
  121. Bit rate                                 : 224 Kbps
  122. Channel(s)                               : 2 channels
  123. Channel positions                        : Front: L R
  124. Sampling rate                            : 48.0 KHz
  125. Frame rate                               : 31.250 fps (1536 spf)
  126. Compression mode                         : Lossy
  127. Stream size                              : 213 MiB (1%)
  128. Title                                    : Patriots.Day.2016.1080p.BluRay.REMUX.AVC.DTS-HD.MA.7.1-FGT
  129. Language                                 : English
  130. Default                                  : No
  131. Forced                                   : No

  132. Audio #6
  133. ID                                       : 7
  134. Format                                   : AC-3
  135. Format/Info                              : Audio Coding 3
  136. Format profile                           : Dolby Digital
  137. Mode extension                           : CM (complete main)
  138. Format settings, Endianness              : Big
  139. Codec ID                                 : A_AC3
  140. Duration                                 : 2h 13mn
  141. Bit rate mode                            : Constant
  142. Bit rate                                 : 224 Kbps
  143. Channel(s)                               : 2 channels
  144. Channel positions                        : Front: L R
  145. Sampling rate                            : 48.0 KHz
  146. Frame rate                               : 31.250 fps (1536 spf)
  147. Compression mode                         : Lossy
  148. Stream size                              : 213 MiB (1%)
  149. Title                                    : Patriots.Day.2016.1080p.BluRay.REMUX.AVC.DTS-HD.MA.7.1-FGT
  150. Language                                 : English
  151. Default                                  : No
  152. Forced                                   : No

  153. Audio #7
  154. ID                                       : 8
  155. Format                                   : DTS
  156. Format/Info                              : Digital Theater Systems
  157. Mode                                     : 16
  158. Format settings, Endianness              : Big
  159. Codec ID                                 : A_DTS
  160. Duration                                 : 2h 13mn
  161. Bit rate mode                            : Constant
  162. Bit rate                                 : 768 Kbps
  163. Channel(s)                               : 2 channels
  164. Channel positions                        : Front: L R
  165. Sampling rate                            : 48.0 KHz
  166. Frame rate                               : 93.750 fps (512 spf)
  167. Bit depth                                : 24 bits
  168. Compression mode                         : Lossy
  169. Stream size                              : 731 MiB (3%)
  170. Title                                    : Patriots.Day.2016.1080p.BluRay.REMUX.AVC.DTS-HD.MA.7.1-FGT
  171. Language                                 : English
  172. Default                                  : No
  173. Forced                                   : No

  174. Text #1
  175. ID                                       : 9
  176. Format                                   : PGS
  177. Muxing mode                              : zlib
  178. Codec ID                                 : S_HDMV/PGS
  179. Codec ID/Info                            : Picture based subtitle format used on BDs/HD-DVDs
  180. Title                                    : English-PGS
  181. Language                                 : English
  182. Default                                  : Yes
  183. Forced                                   : No

  184. Text #2
  185. ID                                       : 10
  186. Format                                   : PGS
  187. Muxing mode                              : zlib
  188. Codec ID                                 : S_HDMV/PGS
  189. Codec ID/Info                            : Picture based subtitle format used on BDs/HD-DVDs
  190. Title                                    : French-PGS
  191. Language                                 : French
  192. Default                                  : No
  193. Forced                                   : No

  194. Text #3
  195. ID                                       : 11
  196. Format                                   : PGS
  197. Muxing mode                              : zlib
  198. Codec ID                                 : S_HDMV/PGS
  199. Codec ID/Info                            : Picture based subtitle format used on BDs/HD-DVDs
  200. Title                                    : Spanish-PGS
  201. Language                                 : Spanish
  202. Default                                  : No
  203. Forced                                   : No

  204. Text #4
  205. ID                                       : 12
  206. Format                                   : PGS
  207. Muxing mode                              : zlib
  208. Codec ID                                 : S_HDMV/PGS
  209. Codec ID/Info                            : Picture based subtitle format used on BDs/HD-DVDs
  210. Title                                    : French-FORCED-PGS
  211. Language                                 : French
  212. Default                                  : No
  213. Forced                                   : No

  214. Text #5
  215. ID                                       : 13
  216. Format                                   : PGS
  217. Muxing mode                              : zlib
  218. Codec ID                                 : S_HDMV/PGS
  219. Codec ID/Info                            : Picture based subtitle format used on BDs/HD-DVDs
  220. Title                                    : Spanish-FORCED-PGS
  221. Language                                 : Spanish
  222. Default                                  : No
  223. Forced                                   : No

  224. Menu
  225. 00:00:00.000                             : en:Chapter 01
  226. 00:08:30.510                             : en:Chapter 02
  227. 00:17:47.733                             : en:Chapter 03
  228. 00:24:56.119                             : en:Chapter 04
  229. 00:32:35.870                             : en:Chapter 05
  230. 00:41:44.502                             : en:Chapter 06
  231. 00:49:23.001                             : en:Chapter 07
  232. 00:58:35.512                             : en:Chapter 08
  233. 01:07:10.026                             : en:Chapter 09
  234. 01:19:05.157                             : en:Chapter 10
  235. 01:24:19.721                             : en:Chapter 11
  236. 01:33:48.331                             : en:Chapter 12
  237. 01:45:17.102                             : en:Chapter 13
  238. 01:50:24.326                             : en:Chapter 14
  239. 01:57:57.070                             : en:Chapter 15
  240. 02:05:25.518                             : en:Chapter 16
  241. 02:13:07.980                             : en:Chapter 17



复制代码


精彩剧照

爱国者之日/爱国者行动 Patriots.Day.2016.1080p.BluRay.REMUX.AVC.DTS-HD.MA.7.1-FGT 28.25GB-2.png 爱国者之日/爱国者行动 Patriots.Day.2016.1080p.BluRay.REMUX.AVC.DTS-HD.MA.7.1-FGT 28.25GB-3.png 爱国者之日/爱国者行动 Patriots.Day.2016.1080p.BluRay.REMUX.AVC.DTS-HD.MA.7.1-FGT 28.25GB-4.png 爱国者之日/爱国者行动 Patriots.Day.2016.1080p.BluRay.REMUX.AVC.DTS-HD.MA.7.1-FGT 28.25GB-5.png 爱国者之日/爱国者行动 Patriots.Day.2016.1080p.BluRay.REMUX.AVC.DTS-HD.MA.7.1-FGT 28.25GB-6.png 爱国者之日/爱国者行动 Patriots.Day.2016.1080p.BluRay.REMUX.AVC.DTS-HD.MA.7.1-FGT 28.25GB-7.png

蓝光高清网提示您 点击下方附件名称 马上开始下载

Patriots.Day.2016.1080p.BluRay.REMUX.AVC.DTS-HD.MA.7.1-FGT.torrent (71.25 KB, 下载次数: 0)

加入蓝光高清网VIP会员  无限制下载本站所有资源---点此加入

资源下载、资源播放、字幕使用、无法下载等常见问题---点这里

回复

使用道具 举报

懒得打字嘛,点击右侧快捷回复
您需要登录后才可以回帖 登录 | 立即注册

本版积分规则

关注0

粉丝0

帖子69282

发布主题
最新电影 论坛
广告位
联系我们
点击这里联系客服

服务时间:
周一到周日8:00-23:30

  • 打开微信扫一扫
    关注公众号

  • 手机QQ扫一扫
    添加客服

Archiver手机版蓝光高清网 ( 渝ICP备18006373号-2 )|网站地图

Powered by Discuz! X3.4  © 2001-2013 Comsenz Inc.