蓝光高清网

开启左侧

[武侠古装] 东方不败风云再起/笑傲江湖之东方不败风云再起 Swordsman.III.The.East.Is.Red.1993.CHINESE.1080p.BluRay.x

[复制链接]

2022-1-14 19:25:44 10544 2


东方不败风云再起/笑傲江湖之东方不败风云再起 Swordsman.III.The.East.Is.Red.1993.CHINESE.1080p.BluRay.x264.DTS-FGT 8.74GB-1.jpg
◎译  名 东方不败风云再起 / 笑傲江湖之东方不败风云再起 / 笑傲江湖3 / The East Is Red / Swordsman 3
◎片  名 东方不败风云再起 東方不敗之風雲再起
◎年  代 1993
◎国  家 香港
◎类  别 动作 / 爱情 / 武侠 / 古装
◎语  言 粤语
◎上映日期 1993-01-21(香港)
◎IMDb评分  6.3/10 from 1,277 users
◎IMDb链接  http://www.imdb.com/title/tt0105655/
◎豆瓣评分 7.2/10 from 53675 users
◎豆瓣链接 https://movie.douban.com/subject/1394324/
◎片  长 93 分钟 / 98分钟
◎导  演 李惠民 / 程小东
◎主  演 林青霞
      王祖贤
      王静莹
      于荣光
      刘洵
      高雄
      李家鼎
      苑琼丹
      任世官

◎简  介 

  水师提督顾长风(于荣光饰)奉朝廷之命带领西班牙舰队探访黑木崖,过程中西班牙领队欲打开东方不败的棺木于视东方不败为偶像的顾长风发生争执。正在此时黑木崖上忽然现身一怪人(刘洵饰),可以以掌接西班牙火枪子弹。顾长风被怪人所救,却身受内伤,坚信其便是东方不败,坚持要一见其真面目,虽死无憾。怪人一偿所愿,让其看自己的庐山真面目,正是当年风采依旧的东方不败(林青霞饰)。顾长风告诉东方不败江湖上有很多人正在冒充他的名号为非作歹,东方不败于是决定留其性命,让他看着自己重出江湖。与此同时,东方不败旧时爱妾雪千寻(王祖贤饰)正率领着一群苗人打着东方不败的旗号与日本倭寇就海域问题谈判,雪千寻痴心不改,重组神教只是为了等待爱人归来......

◎获奖情况 

  第13届香港电影金像奖 (1994)
  最佳服装造型设计(提名) 张叔平 /  赵国信



该资源信息参数

  1. Video
  2. ID                                       : 1
  3. Format                                   : AVC
  4. Format/Info                              : Advanced Video Codec
  5. Format profile                           : [email protected]
  6. Format settings                          : CABAC / 4 Ref Frames
  7. Format settings, CABAC                   : Yes
  8. Format settings, ReFrames                : 4 frames
  9. Codec ID                                 : V_MPEG4/ISO/AVC
  10. Duration                                 : 1 h 36 min
  11. Bit rate                                 : 11.5 Mb/s
  12. Width                                    : 1 920 pixels
  13. Height                                   : 1 080 pixels
  14. Display aspect ratio                     : 16:9
  15. Frame rate mode                          : Constant
  16. Frame rate                               : 24.000 FPS
  17. Color space                              : YUV
  18. Chroma subsampling                       : 4:2:0
  19. Bit depth                                : 8 bits
  20. Scan type                                : Progressive
  21. Bits/(Pixel*Frame)                       : 0.231
  22. Stream size                              : 7.73 GiB (88%)
  23. Title                                    : Swordsman.III.The.East.Is.Red.1993.CHINESE.1080p.BluRay.x264.DTS-FGT
  24. Writing library                          : x264 core 148 r2795M aaa9aa8
  25. Encoding settings                        : cabac=1 / ref=4 / deblock=1:-2:-2 / analyse=0x3:0x113 / me=umh / subme=9 / psy=1 / psy_rd=1.00:0.15 / mixed_ref=1 / me_range=16 / chroma_me=1 / trellis=2 / 8x8dct=1 / cqm=0 / deadzone=21,11 / fast_pskip=1 / chroma_qp_offset=-3 / threads=72 / lookahead_threads=3 / sliced_threads=0 / nr=0 / decimate=1 / interlaced=0 / bluray_compat=0 / constrained_intra=0 / bframes=3 / b_pyramid=2 / b_adapt=1 / b_bias=0 / direct=3 / weightb=1 / open_gop=0 / weightp=2 / keyint=250 / keyint_min=25 / scenecut=40 / intra_refresh=0 / rc_lookahead=50 / rc=2pass / mbtree=1 / bitrate=11500 / ratetol=1.0 / qcomp=0.60 / qpmin=0 / qpmax=69 / qpstep=4 / cplxblur=20.0 / qblur=0.5 / vbv_maxrate=31250 / vbv_bufsize=31250 / nal_hrd=none / filler=0 / ip_ratio=1.40 / aq=1:1.00
  26. Language                                 : Chinese
  27. Default                                  : Yes
  28. Forced                                   : No

  29. Audio
  30. ID                                       : 2
  31. Format                                   : DTS
  32. Format/Info                              : Digital Theater Systems
  33. Codec ID                                 : A_DTS
  34. Duration                                 : 1 h 35 min
  35. Bit rate mode                            : Constant
  36. Bit rate                                 : 1 509 kb/s
  37. Channel(s)                               : 6 channels
  38. Channel layout                           : C L R Ls Rs LFE
  39. Sampling rate                            : 48.0 kHz
  40. Frame rate                               : 93.750 FPS (512 SPF)
  41. Bit depth                                : 24 bits
  42. Compression mode                         : Lossy
  43. Stream size                              : 1.01 GiB (12%)
  44. Title                                    : Swordsman.III.The.East.Is.Red.1993.CHINESE.1080p.BluRay.x264.DTS-FGT
  45. Language                                 : Chinese
  46. Default                                  : Yes
  47. Forced                                   : No

  48. Text
  49. ID                                       : 3
  50. Format                                   : UTF-8
  51. Codec ID                                 : S_TEXT/UTF8
  52. Codec ID/Info                            : UTF-8 Plain Text
  53. Duration                                 : 1 h 33 min
  54. Bit rate                                 : 47 b/s
  55. Count of elements                        : 1015
  56. Stream size                              : 32.8 KiB (0%)
  57. Language                                 : English
  58. Default                                  : Yes
  59. Forced                                   : Yes

  60. Menu
  61. 00:00:00.000                             : en:Chapter 1
  62. 00:07:00.125                             : en:Chapter 2
  63. 00:19:15.583                             : en:Chapter 3
  64. 00:24:50.208                             : en:Chapter 4
  65. 00:33:55.000                             : en:Chapter 5
  66. 00:38:02.000                             : en:Chapter 6
  67. 00:48:15.000                             : en:Chapter 7
  68. 00:59:07.250                             : en:Chapter 8
  69. 01:02:15.375                             : en:Chapter 9
  70. 01:09:29.750                             : en:Chapter 10
  71. 01:20:19.000                             : en:Chapter 11
  72. 01:29:58.166                             : en:Chapter 12
复制代码




精彩剧照

东方不败风云再起/笑傲江湖之东方不败风云再起 Swordsman.III.The.East.Is.Red.1993.CHINESE.1080p.BluRay.x264.DTS-FGT 8.74GB-2.png 东方不败风云再起/笑傲江湖之东方不败风云再起 Swordsman.III.The.East.Is.Red.1993.CHINESE.1080p.BluRay.x264.DTS-FGT 8.74GB-3.png 东方不败风云再起/笑傲江湖之东方不败风云再起 Swordsman.III.The.East.Is.Red.1993.CHINESE.1080p.BluRay.x264.DTS-FGT 8.74GB-4.png


蓝光高清网提示您 点击下方附件名称 马上开始下载

Swordsman.III.The.East.Is.Red.1993.CHINESE.1080p.BluRay.x264.DTS-FGT.torrent (87.96 KB)
加入蓝光高清网VIP会员  无限制下载本站所有资源---点这里

资源下载、资源播放、字幕使用、无法下载等常见问题---点这里
回复

使用道具 举报

全部回复2

李保杉 发表于 2019-12-8 20:41:23

李保杉 沙发

2019-12-8 20:41:23

Swordsman.III.The.East.Is.Red.1993.CHINESE.1080p.BluRay.x264.DTS-FGT.torrent 8
回复 支持 反对

使用道具 举报

再会未来 发表于 2022-1-14 19:25:44

再会未来 板凳

2022-1-14 19:25:44

不错的资源
回复 支持 反对

使用道具 举报

发表回复

您需要登录后才可以回帖 登录 | 立即注册

返回列表 本版积分规则

:
:
1371333023@qq.com
:
点击这里给我发消息
:
http://
:
未填写

主题97224

帖子97728

积分183041

最新推荐

  • 轮回 4k.Samsara.2011.2160p.WEB-DL.x265.1

    简 介   灵动的音符与舞步,天真无邪且

  • 爱情狂奔 Love.On.The.Run.1979.FRENCH.108

    ◎译  名 爱情狂奔 / 爱情飞逝 / 爱情奔跑 /

  • 偷吻 Stolen.Kisses.1968.1080p.BluRay.x26

    ◎译  名 偷吻 / Stolen Kisses◎片  名 Ba

  • 永恒族 Eternals.2021.1080p.BluRay.x264.D

    ◎译  名 永恒族 / 永恒神族 / The Eternals◎

  • 大红狗克里弗 Clifford.The.Big.Red.Dog.20

    ◎译  名 大红狗克里弗 / 赤BIG灵灵狗(港)◎片

  • WWE:强者生存 2021 WWE.Survivor.Series.2

    ◎译  名 WWE:强者生存 2021◎片  名 WWE

  • 豪门血劫 The.Banker.1989.1080p.BluRay.x2

    ◎译  名 豪门血劫 / 银行家◎片  名 The B

  • 破产姐妹 2.Broke.Girls.S05.1080p.HDTV.X2

    影片参数 蓝光高清网提示您 点击下方附件名称 即

  • 爱情是狗娘 4k.Amores.Perros.2000.SPANISH

    简 介   三个与狗有关的故事,三段令人

  • 四百下 / 胡作非为 / The 400 Blows/四百击

    简 介   作文课上,安托万(Jean-Pierre

  • 世界之美THE BEAUTY OF THE WORLD in 8K UL

    影片参数 蓝光高清网提示您 点击下方附件名

  • 8K(60p)VIDEOS UltraHD _ Realistic 8K HD

    影片参数 蓝光高清网提示您 点击下方附件名

  • 8K (120 FPS) VIDEOS _ World 8K Videos H

    影片参数 蓝光高清网提示您 点击下方附件

  • 8K (60 FPS) VIDEOS _ Beauty of WorldH

    影片参数 蓝光高清网提示您 点击下方

  • 变种动物园 怪奇兽乐园(台)Cryptozoo.2021

    ◎译  名 变种动物园 / 怪奇兽乐园(台)◎片 

  • 红圈 Le.Cercle.Rouge.1970.REMASTERED.108

    ◎译  名 红圈 / 血环 / 仁义血环 / 死性不改

  • 陆阿采与黄飞鸿 Challenge.of.the.Masters.

    ◎译  名 陆阿采与黄飞鸿 / Challenge of the

  • 唐人街小子 Chinatown.Kid.1977.Alternate.

    ◎译  名 唐人街小子 / 唐人街功夫小子 / 以毒

  • 发帖

  • 在线客服

  • 微信

  • 客户端

  • 返回顶部