[剧情片] 苦楚我名 Call.Me.Kuchu.2012.1080p.AMZN.WEBRip.DDP5.1.x264-IGD 6.21GB

[复制链接]
蓝鸟VIP会员 永久VIP 发表于 2019-9-18 03:18:31 | 显示全部楼层 |阅读模式 打印 上一主题 下一主题

马上注册,轻松下载,海量资源,让你轻松玩转社区。

您需要 登录 才可以下载或查看,没有帐号?立即注册

x


译  名 苦楚我名
片  名 Call Me Kuchu
年  代 2012
产  地 美国 / 乌干达 Uganda
类  别 剧情 / 纪录片
语  言 英语
上映日期 2012-02-13(柏林电影节)
IMDb评分  7.6/10 from 725 users
IMDb链接  http://www.imdb.com/title/tt2088714
豆瓣评分 8.3/10 from 96 users
豆瓣链接 https://movie.douban.com/subject/10465244/
片  长 87分钟
导  演 Katherine Fairfax Wright / Malika Zouhali-Worrall
编  剧 Katherine Fairfax Wright / Malika Zouhali-Worrall

标  签 纪录片 | 乌干达 | 同志 | 美国 | Documentary | 美国电影 | 政治 | 2012

简  介  

  由美国助资拍摄的乌干达第一部同志电影“苦楚我名”围绕该国同志维权家David Kato展开。这位小学教师一直致力于修改乌干达的同性恋死刑法律。当地出版物刊登了包括他在内的100位同性恋的姓名照片,呼吁民众“处死他们”。Kato向最高法院起诉并打赢了这场侵权官司,然而数天后他就不幸死于憎同者的乱斧之下。电影不但反映了乌干达的同志生存状态,并且探讨了非洲国家的民主窘境:为什么旨在剥夺少数人生命和尊严的恶法能在议会以多数票通过?获柏林电影节泰迪熊最佳纪录片奖得主。QAF

获奖情况  

  第62届柏林国际电影节(2012)
  泰迪熊奖 最佳纪录片 Malika Zouhali-Worrall / Katherine Fairfax Wright


该资源信息参数
  1. Video
  2. ID                                       : 1
  3. Format                                   : AVC
  4. Format/Info                              : Advanced Video Codec
  5. Format profile                           : <a href="/cdn-cgi/l/email-protection" class="__cf_email__" data-cfemail="561e3f313e161a62">[email protected]</a>
  6. Format settings                          : CABAC / 4 Ref Frames
  7. Format settings, CABAC                   : Yes
  8. Format settings, Reference frames        : 4 frames
  9. Codec ID                                 : V_MPEG4/ISO/AVC
  10. Duration                                 : 1 h 25 min
  11. Bit rate mode                            : Constant
  12. Bit rate                                 : 10 000 kb/s
  13. Width                                    : 1 920 pixels
  14. Height                                   : 1 080 pixels
  15. Display aspect ratio                     : 16:9
  16. Frame rate mode                          : Constant
  17. Frame rate                               : 29.970 (30000/1001) FPS
  18. Color space                              : YUV
  19. Chroma subsampling                       : 4:2:0
  20. Bit depth                                : 8 bits
  21. Scan type                                : Progressive
  22. Bits/(Pixel*Frame)                       : 0.161
  23. Stream size                              : 5.83 GiB (94%)
  24. Default                                  : Yes
  25. Forced                                   : No
  26. Color range                              : Limited
  27. Color primaries                          : BT.709
  28. Transfer characteristics                 : BT.709
  29. Matrix coefficients                      : BT.709

  30. Audio
  31. ID                                       : 2
  32. Format                                   : E-AC-3
  33. Format/Info                              : Enhanced AC-3
  34. Commercial name                          : Dolby Digital Plus
  35. Codec ID                                 : A_EAC3
  36. Duration                                 : 1 h 25 min
  37. Bit rate mode                            : Constant
  38. Bit rate                                 : 640 kb/s
  39. Channel(s)                               : 6 channels
  40. Channel layout                           : L R C LFE Ls Rs
  41. Sampling rate                            : 48.0 kHz
  42. Frame rate                               : 31.250 FPS (1536 SPF)
  43. Compression mode                         : Lossy
  44. Stream size                              : 393 MiB (6%)
  45. Language                                 : English
  46. Service kind                             : Complete Main
  47. Default                                  : Yes
  48. Forced                                   : No

  49. Text
  50. ID                                       : 3
  51. Format                                   : UTF-8
  52. Codec ID                                 : S_TEXT/UTF8
  53. Codec ID/Info                            : UTF-8 Plain Text
  54. Duration                                 : 1 h 24 min
  55. Bit rate                                 : 3 b/s
  56. Count of elements                        : 95
  57. Stream size                              : 2.03 KiB (0%)
  58. Title                                    : English [CC](SDH)
  59. Language                                 : English
  60. Default                                  : Yes
  61. Forced                                   : No
复制代码


精彩剧照




蓝光高清网提示您 点击下方附件名称 马上开始下载



温馨提示:
本站资源优先使用迅雷下载,迅雷会员下载,速度基本可以跑满宽带
如果遇到无资源或者版权问题无法下载,推荐使用115网盘离线下载(点击查看115网盘离线下载教程


  • 该资源需要您回复以后 刷新网页进行下载操作

  • 1、Call.Me.Kuchu.2012.1080p.AMZN.WEBRip.DDP5.1.x264-IGD.torrent 32KB 已下载 0 次

加入蓝光高清网VIP会员  无限制下载本站所有资源---点此加入

资源下载、资源播放、字幕使用、无法下载等常见问题---点这里

回复

使用道具 举报

懒得打字嘛,点击右侧快捷回复
高级模式
B Color Image Link Quote Code Smilies 上传

本版积分规则

关注0

粉丝0

帖子66311

发布主题
最新电影 论坛
广告位
联系我们
点击这里联系客服

服务时间:
周一到周日8:00-23:30

  • 打开微信扫一扫
    关注公众号

  • 手机QQ扫一扫
    添加客服

Archiver手机版蓝光高清网 ( 渝ICP备18006373号-2 )|网站地图

Powered by Discuz! X3.4  © 2001-2013 Comsenz Inc.