[剧情片] 摇尾狗/作大英雄 Wag.the.Dog.1997.1080p.AMZN.WEBRip.DDP2.0.x264-hV 8.72GB

[复制链接]
蓝鸟VIP会员 永久VIP 发表于 2019-9-18 03:45:57 | 显示全部楼层 |阅读模式 打印 上一主题 下一主题

马上注册,轻松下载,海量资源,让你轻松玩转社区。

您需要 登录 才可以下载或查看,没有帐号?立即注册

x


译  名 摇尾狗 / 作大英雄 / 摇摆狗 / 桃色风云:摇摆狗
片  名 Wag the Dog
年  代 1997
产  地 美国
类  别 剧情 / 喜剧
语  言 英语
上映日期 1997-12-17
IMDb评分  7.2/10 from 75011 users
IMDb链接  http://www.imdb.com/title/tt0120885
豆瓣评分 8.1/10 from 4719 users
豆瓣链接 https://movie.douban.com/subject/1293985/
片  长 97 分钟
导  演 Barry Levinson
编  剧 Hilary Henkin / 大卫·马梅 David Mamet / Larry Beinhart
主  演 达斯汀·霍夫曼 Dustin Hoffman
       罗伯特·德尼罗 Robert De Niro
       安·海切 Anne Heche
       丹尼斯·利瑞 Denis Leary
       Willie Nelson
       安德列·马丁 Andrea Martin
       克斯汀·邓斯特 Kirsten Dunst
       威廉姆·H·梅西 William H. Macy
       约翰·迈克尔·辛吉斯 John Michael Higgins
       苏西·帕尔克森 Suzie Plakson
       伍迪·哈里森 Woody Harrelson
       Michael Belson
       Suzanne Cryer
       Jason Cottle
       大卫·科恩查内 David Koechner


标  签 美国 | 政治 | 黑色幽默 | DustinHoffman | 喜剧 | RobertDeNiro | 美国电影 | 1997

简  介  

  美国华盛顿特区,新一轮总统大选前两周。一桩耸人听闻的总统骚扰未成年少女的性丑闻事件,就在这切要关头被披露曝光,闹得沸沸扬扬。加上新闻媒体的大肆炒作,总统谋求连任的机会简直微乎其微。为了平息这场风波,总统紧急召见了老谋深算的政治顾问康拉德·布里恩博士(罗伯特·德尼罗 Robert De Niro 饰)。善于操纵公众舆论导向的布里恩,在紧要关头很快献出一条“妙计”。为了转移公众对性骚扰事件的注意力,布里恩凭空捏造出一场子虚乌有的爱国战争“阿尔巴尼亚战争”。为了让这场虚构出来的战争真实可信,布里恩专程拜访了大名鼎鼎的好莱坞著名制片人斯坦利·莫斯(达斯汀·霍夫曼 Dustin Hoffman 饰)。在他们“天衣无缝”的导演之下,公众果然信以为真,倍加关注。然而,这场所谓的爱国战争不久便破绽百出,不攻自破。
  本片改编自Larry Beinhart的小说《American Hero》。影片赢得1998年第48届柏林国际电影节银熊奖,并荣获奥斯卡奖-最佳改编剧本在内的7次提名。达斯汀·霍夫曼更凭借此片荣获1998年第70届奥斯卡奖-最佳男主角提名。

获奖情况  

  第70届奥斯卡金像奖(1998)
  最佳男主角(提名) 达斯汀·霍夫曼
  最佳改编剧本(提名) 大卫·马梅 / 希拉里·亨金

  第48届柏林国际电影节(1998)
  金熊奖(提名) 巴瑞·莱文森
  银熊奖 评审团奖 巴瑞·莱文森


该资源信息参数
  1. Video
  2. ID                                       : 1
  3. Format                                   : AVC
  4. Format/Info                              : Advanced Video Codec
  5. Format profile                           : <a href="/cdn-cgi/l/email-protection" class="__cf_email__" data-cfemail="3e765759567e720a">[email protected]</a>
  6. Format settings, CABAC                   : Yes
  7. Format settings, ReFrames                : 4 frames
  8. Codec ID                                 : V_MPEG4/ISO/AVC
  9. Duration                                 : 1h 37mn
  10. Bit rate mode                            : Variable
  11. Bit rate                                 : 12.6 Mbps
  12. Maximum bit rate                         : 15.0 Mbps
  13. Width                                    : 1 920 pixels
  14. Height                                   : 1 080 pixels
  15. Display aspect ratio                     : 16:9
  16. Frame rate mode                          : Constant
  17. Frame rate                               : 23.976 (24000/1001) fps
  18. Color space                              : YUV
  19. Chroma subsampling                       : 4:2:0
  20. Bit depth                                : 8 bits
  21. Scan type                                : Progressive
  22. Bits/(Pixel*Frame)                       : 0.254
  23. Stream size                              : 8.57 GiB (98%)
  24. Title                                    : Wag The Dog
  25. Writing library                          : x264 core 148 r2623 d5b2374
  26. Encoding settings                        : cabac=1 / ref=4 / deblock=1:-1:-1 / analyse=0x3:0x133 / me=umh / subme=9 / psy=1 / psy_rd=1.00:0.15 / mixed_ref=1 / me_range=24 / chroma_me=1 / trellis=2 / 8x8dct=1 / cqm=0 / deadzone=21,11 / fast_pskip=1 / chroma_qp_offset=-3 / threads=34 / lookahead_threads=5 / sliced_threads=0 / nr=150 / decimate=1 / interlaced=0 / bluray_compat=0 / constrained_intra=0 / bframes=8 / b_pyramid=2 / b_adapt=2 / b_bias=0 / direct=3 / weightb=1 / open_gop=0 / weightp=2 / keyint=120 / keyint_min=61 / scenecut=0 / intra_refresh=0 / rc_lookahead=120 / rc=crf / mbtree=1 / crf=18.0 / qcomp=0.60 / qpmin=0 / qpmax=69 / qpstep=4 / vbv_maxrate=15000 / vbv_bufsize=31250 / crf_max=0.0 / nal_hrd=vbr / filler=0 / ip_ratio=1.40 / aq=3:1.00
  27. Default                                  : Yes
  28. Forced                                   : No
  29. Color range                              : Limited
  30. Color primaries                          : BT.709
  31. Transfer characteristics                 : BT.709
  32. Matrix coefficients                      : BT.709

  33. Audio
  34. ID                                       : 2
  35. Format                                   : E-AC-3
  36. Format/Info                              : Audio Coding 3
  37. Format settings, Endianness              : Big
  38. Codec ID                                 : A_EAC3
  39. Duration                                 : 1h 37mn
  40. Bit rate mode                            : Constant
  41. Bit rate                                 : 224 Kbps
  42. Channel(s)                               : 2 channels
  43. Channel positions                        : Front: L R
  44. Sampling rate                            : 48.0 KHz
  45. Frame rate                               : 187.500 fps (256 spf)
  46. Compression mode                         : Lossy
  47. Stream size                              : 156 MiB (2%)
  48. Title                                    : English
  49. Language                                 : English
  50. Default                                  : Yes
  51. Forced                                   : No

  52. Text
  53. ID                                       : 3
  54. Format                                   : UTF-8
  55. Codec ID                                 : S_TEXT/UTF8
  56. Codec ID/Info                            : UTF-8 Plain Text
  57. Duration                                 : 1h 35mn
  58. Bit rate                                 : 107 bps
  59. Count of elements                        : 2637
  60. Stream size                              : 75.5 KiB (0%)
  61. Title                                    : English
  62. Language                                 : English
  63. Default                                  : No
  64. Forced                                   : No

  65. Menu
  66. 00:00:03.190                             : en:00:00:03.190
  67. 00:00:19.760                             : en:00:00:19.760
  68. 00:01:16.215                             : en:00:01:16.215
  69. 00:03:35.344                             : en:00:03:35.344
  70. 00:05:44.480                             : en:00:05:44.480
  71. 00:08:00.581                             : en:00:08:00.581
  72. 00:09:41.752                             : en:00:09:41.752
  73. 00:12:32.947                             : en:00:12:32.947
  74. 00:15:47.110                             : en:00:15:47.110
  75. 00:18:18.124                             : en:00:18:18.124
  76. 00:20:43.133                             : en:00:20:43.133
  77. 00:22:11.144                             : en:00:22:11.144
  78. 00:24:03.158                             : en:00:24:03.158
  79. 00:26:21.169                             : en:00:26:21.169
  80. 00:28:07.176                             : en:00:28:07.176
  81. 00:29:21.194                             : en:00:29:21.194
  82. 00:32:17.215                             : en:00:32:17.215
  83. 00:35:48.221                             : en:00:35:48.221
  84. 00:36:49.237                             : en:00:36:49.237
  85. 00:39:29.262                             : en:00:39:29.262
  86. 00:43:36.266                             : en:00:43:36.266
  87. 00:44:17.282                             : en:00:44:17.282
  88. 00:47:00.296                             : en:00:47:00.296
  89. 00:49:17.310                             : en:00:49:17.310
  90. 00:51:38.323                             : en:00:51:38.323
  91. 00:53:47.344                             : en:00:53:47.344
  92. 00:57:16.354                             : en:00:57:16.354
  93. 00:58:55.372                             : en:00:58:55.372
  94. 01:01:56.388                             : en:01:01:56.388
  95. 01:04:35.397                             : en:01:04:35.397
  96. 01:06:06.412                             : en:01:06:06.412
  97. 01:08:35.426                             : en:01:08:35.426
  98. 01:10:57.447                             : en:01:10:57.447
  99. 01:14:26.465                             : en:01:14:26.465
  100. 01:17:27.475                             : en:01:17:27.475
  101. 01:19:13.484                             : en:01:19:13.484
  102. 01:20:43.499                             : en:01:20:43.499
  103. 01:23:08.509                             : en:01:23:08.509
  104. 01:24:52.529                             : en:01:24:52.529
  105. 01:28:13.548                             : en:01:28:13.548
  106. 01:31:21.557                             : en:01:31:21.557
  107. 01:32:50.563                             : en:01:32:50.563
  108. 01:33:51.582                             : en:01:33:51.582
复制代码


精彩剧照




蓝光高清网提示您 点击下方附件名称 马上开始下载



温馨提示:
本站资源优先使用迅雷下载,迅雷会员下载,速度基本可以跑满宽带
如果遇到无资源或者版权问题无法下载,推荐使用115网盘离线下载(点击查看115网盘离线下载教程


  • 该资源需要您回复以后 刷新网页进行下载操作

  • 1、Wag.the.Dog.1997.1080p.AMZN.WEBRip.DDP2.0.x264-hV.torrent 88KB 已下载 0 次

加入蓝光高清网VIP会员  无限制下载本站所有资源---点此加入

资源下载、资源播放、字幕使用、无法下载等常见问题---点这里

回复

使用道具 举报

懒得打字嘛,点击右侧快捷回复
高级模式
B Color Image Link Quote Code Smilies 上传

本版积分规则

关注0

粉丝0

帖子66311

发布主题
最新电影 论坛
广告位
联系我们
点击这里联系客服

服务时间:
周一到周日8:00-23:30

  • 打开微信扫一扫
    关注公众号

  • 手机QQ扫一扫
    添加客服

Archiver手机版蓝光高清网 ( 渝ICP备18006373号-2 )|网站地图

Powered by Discuz! X3.4  © 2001-2013 Comsenz Inc.