[恐怖片] 冬日肌肤 Winterskin.2018.1080p.AMZN.WEBRip.DDP2.0.x264-IGD 2.62GB

[复制链接]
蓝鸟 发表于 2019-9-18 07:53:16 | 显示全部楼层 |阅读模式 打印 上一主题 下一主题
冬日肌肤 Winterskin.2018.1080p.AMZN.WEBRip.DDP2.0.x264-IGD 2.62GB-1.png

译  名 冬日肌肤
片  名 Winterskin
年  代 2018
产  地 英国
类  别 恐怖
语  言 英语
上映日期 2018-11-10
IMDb评分  3.8/10 from 109 users
IMDb链接  http://www.imdb.com/title/tt7715192
豆瓣评分 0/10 from 0 users
豆瓣链接 https://movie.douban.com/subject/30140601/
导  演 Charlie Steeds
编  剧 Charlie Steeds
主  演 Kate Davies-Speak
       eter Cosgrove
       Barrington De La Roche


标  签 英国电影 | 恐怖

简  介  

  Gunned down in the snowy wilderness and desperate for shelter, Billy Cavanagh is taken in by kooky old lady Agnes, unaware that her isolated log cabin is surrounded by bloodthirsty skinless creatures hellbent on getting inside.


该资源信息参数
  1. Video
  2. ID                                       : 1
  3. Format                                   : AVC
  4. Format/Info                              : Advanced Video Codec
  5. Format profile                           : <a href="/cdn-cgi/l/email-protection" class="__cf_email__" data-cfemail="5a12333d321a166e">[email protected]</a>
  6. Format settings                          : CABAC / 4 Ref Frames
  7. Format settings, CABAC                   : Yes
  8. Format settings, Reference frames        : 4 frames
  9. Codec ID                                 : V_MPEG4/ISO/AVC
  10. Duration                                 : 1 h 24 min
  11. Bit rate mode                            : Constant
  12. Bit rate                                 : 4 207 kb/s
  13. Nominal bit rate                         : 10 000 kb/s
  14. Width                                    : 1 920 pixels
  15. Height                                   : 816 pixels
  16. Display aspect ratio                     : 2.35:1
  17. Frame rate mode                          : Constant
  18. Frame rate                               : 25.000 FPS
  19. Color space                              : YUV
  20. Chroma subsampling                       : 4:2:0
  21. Bit depth                                : 8 bits
  22. Scan type                                : Progressive
  23. Bits/(Pixel*Frame)                       : 0.107
  24. Stream size                              : 2.48 GiB (95%)
  25. Default                                  : Yes
  26. Forced                                   : No
  27. Color range                              : Limited
  28. Color primaries                          : BT.709
  29. Transfer characteristics                 : BT.709
  30. Matrix coefficients                      : BT.709

  31. Audio
  32. ID                                       : 2
  33. Format                                   : E-AC-3
  34. Format/Info                              : Enhanced AC-3
  35. Commercial name                          : Dolby Digital Plus
  36. Codec ID                                 : A_EAC3
  37. Duration                                 : 1 h 24 min
  38. Bit rate mode                            : Constant
  39. Bit rate                                 : 224 kb/s
  40. Channel(s)                               : 2 channels
  41. Channel layout                           : L R
  42. Sampling rate                            : 48.0 kHz
  43. Frame rate                               : 31.250 FPS (1536 SPF)
  44. Compression mode                         : Lossy
  45. Stream size                              : 135 MiB (5%)
  46. Language                                 : English
  47. Service kind                             : Complete Main
  48. Default                                  : Yes
  49. Forced                                   : No

  50. Text
  51. ID                                       : 3
  52. Format                                   : UTF-8
  53. Codec ID                                 : S_TEXT/UTF8
  54. Codec ID/Info                            : UTF-8 Plain Text
  55. Duration                                 : 1 h 22 min
  56. Bit rate                                 : 52 b/s
  57. Count of elements                        : 1018
  58. Stream size                              : 31.5 KiB (0%)
  59. Title                                    : English [CC](SDH)
  60. Language                                 : English
  61. Default                                  : Yes
  62. Forced                                   : No
复制代码


精彩剧照

冬日肌肤 Winterskin.2018.1080p.AMZN.WEBRip.DDP2.0.x264-IGD 2.62GB-2.png 冬日肌肤 Winterskin.2018.1080p.AMZN.WEBRip.DDP2.0.x264-IGD 2.62GB-3.png 冬日肌肤 Winterskin.2018.1080p.AMZN.WEBRip.DDP2.0.x264-IGD 2.62GB-4.png


蓝光高清网提示您 点击下方附件名称 马上开始下载

Winterskin.2018.1080p.AMZN.WEBRip.DDP2.0.x264-IGD.torrent 
         (26.69 KB    阅读权限: 0)
加入蓝光高清网VIP会员  无限制下载本站所有资源---点这里

资源下载、资源播放、字幕使用、无法下载等常见问题---点这里
回复

使用道具 举报

精彩评论3

smang72 发表于 2019-9-18 08:06:06 | 显示全部楼层
好好 学习了 确实不错
回复

使用道具 举报

xzj8286 发表于 2019-9-18 08:21:12 | 显示全部楼层
找了好久 终于找到了  谢谢分享
回复

使用道具 举报

drummer 发表于 2019-9-18 08:31:16 | 显示全部楼层
找了好久 终于找到了  谢谢分享
回复

使用道具 举报

您需要登录后才可以回帖 登录 | 立即注册

本版积分规则

关注0

粉丝1

帖子82530

发布主题
最新电影 论坛
本期活动
联系我们
点击这里联系客服

服务时间:
周一到周日8:00-23:30

  • 打开微信扫一扫
    关注公众号

  • 手机QQ扫一扫
    添加客服

手机版蓝光高清网 ( 渝ICP备18006373号-2 )|网站地图

Powered by Discuz! X3.4  © 2001-2013 Comsenz Inc.