[英国] 剧院魅影:25周年纪念演出/歌剧魅影之皇家阿尔伯特大厅现场演出版 The.Phantom.Of.The.Opera.At.The.Royal.Albert.Hall.2011.1080p.BluRay.x264-HD4U 10.92GB

[复制链接]
蓝鸟VIP会员 永久VIP 发表于 2019-7-10 09:19:25 | 显示全部楼层 |阅读模式 打印 上一主题 下一主题

马上注册,轻松下载,海量资源,让你轻松玩转社区。

您需要 登录 才可以下载或查看,没有帐号?立即注册

x
本帖最后由 蓝鸟 于 2019-7-10 09:20 编辑

剧院魅影:25周年纪念演出/歌剧魅影之皇家阿尔伯特大厅现场演出版 The.Phantom.Of.The.Opera.At.The.Royal.A ...

剧院魅影:25周年纪念演出/歌剧魅影之皇家阿尔伯特大厅现场演出版 The.Phantom.Of.The.Opera.At.The.Royal.A ...


译  名 剧院魅影:25周年纪念演出 / 歌剧魅影之皇家阿尔伯特大厅现场演出版
片  名 The Phantom of the Opera at the Royal Albert Hall
年  代 2011
产  地 英国
类  别 剧情 / 音乐 / 歌舞
语  言 英语
上映日期 2011-10-02
IMDb评分  8.8/10 from 5957 users
IMDb链接  http://www.imdb.com/title/tt2077886
豆瓣评分 9.7/10 from 8829 users
豆瓣链接 https://movie.douban.com/subject/24751811/
片  长 137分钟
导  演 尼克·莫里斯 Nick Morris / Laurence Connor
编  剧 Richard Stilgoe / 安德鲁·洛伊德·韦伯 Andrew Lloyd Webber / 加斯顿·勒鲁 Gaston Leroux
主  演 莱明·卡莱姆罗 Ramin Karimloo
      Sierra Boggess
      哈德利·弗雷泽 Hadley Fraser
      Sergei Polunin


标  签 音乐剧 | 歌剧魅影 | 经典 | 英国 | 歌剧 | 25周年 | 爱情 | 音乐

简  介  

  这是一场为庆祝音乐剧《剧院魅影》成功上演25周年的特别演出,地点在英国伦敦的皇家阿尔伯特音乐厅(Royal Albert Hall)。活动于2011年10月1日晚、次日下午和晚上,一共进行了3场声势浩大的演出,为到场的音乐剧迷们奉献了一次震撼人心的视听盛宴。演出同时,其 实况录像也在英美的大银幕上映。
阵容方面,伊朗裔加拿大音乐剧男演员Ramin Karimloo领衔主演男主角幽灵(The Phantom),美国音乐剧女演员Sierra Boggess饰演女主角克里斯蒂(Christine Daaé)。两人在韦伯2010年的一部作为《剧院魅影》续集的新剧《魅影:爱无止尽》(Love Never Dies)中,曾联袂合作,是《Love Never Dies》伦敦首演版的男女主角。而在此之前,Ramin Karimloo曾在07至09年《剧院魅影》伦敦版剧组扮演幽灵;而Sierra Boggess是《魅影》拉斯维加斯首演版的Christine,因此二人虽然早已对各自的角色驾轻就熟,而且有过合作经历,但这3场音乐会之前还不曾同台演绎过这部韦伯的经典名剧。演出最后,来自世界各地、不同时代的《魅影》原创艺术家们一同上台,庆祝他们为之奉献的舞台经典。

音乐剧《剧院魅影》(The Phantom of The Opera)由安德鲁?劳埃德?韦伯(Andrew Lloyd Webber)作曲创作,改编自法国小说家Gaston Leroux的同名小说,被认为是音乐剧的一部撼世之作。该剧自1986年在伦敦西区首演以来,长盛不衰,成为伦敦西区第二长寿的音乐剧(在伦敦目前仅次于《悲惨世界》)。
在美国纽约百老汇,该剧的纽约制作版自1988年上演至今,于2006年打破了由《猫》创造的连演纪录,成为了百老汇历史上最长寿的音乐剧。2004年,由乔尔?舒马赫导演的电影版本上映。在世界范围内,该剧取得了近60多项主要的戏剧奖项。截止到2011年,已在全球27个国家、145个城市上演过,发行过不同语言、不同制作版本的唱片。
2004年,该剧第一次与中国大陆观众见面,当时的亚洲巡演制作版剧组,在上海大剧院连演近百场,轰动申城的文艺界,成为上海年度文化盛事之一。 2013至14期间,该剧第二次来到上海巡演。
25年来,《剧院魅影》累计票房收入超过到32亿,压倒任何一部电影作品。目前该剧的英语剧组版本在伦敦、纽约常驻当地剧院演出。
关于这部戏的创作团队,金牌戏剧制作人卡梅隆?麦金托什(Cameron Mackintosh)是该剧从早期创作、上演到现如今运营的制作人,Charles Hart和Richard Stilgoe作词,舞台版总导演是著名舞台剧导演Harold Prince。

  • Video
  • ID                                       : 1
  • Format                                   : AVC
  • Format/Info                              : Advanced Video Codec
  • Format profile                           : <a href="/cdn-cgi/l/email-protection" class="__cf_email__" data-cfemail="6a22030d022a265e445b">[email protected]</a>
  • Format settings, CABAC                   : Yes
  • Format settings, ReFrames                : 4 frames
  • Muxing mode                              : Header stripping
  • Codec ID                                 : V_MPEG4/ISO/AVC
  • Duration                                 : 2 h 39 min
  • Bit rate                                 : 8 271 kb/s
  • Width                                    : 1 920 pixels
  • Height                                   : 1 080 pixels
  • Display aspect ratio                     : 16:9
  • Frame rate mode                          : Constant
  • Frame rate                               : 23.976 FPS
  • Color space                              : YUV
  • Chroma subsampling                       : 4:2:0
  • Bit depth                                : 8 bits
  • Scan type                                : Progressive
  • Bits/(Pixel*Frame)                       : 0.166
  • Stream size                              : 9.02 GiB (83%)
  • Writing library                          : x264 core 120 r2120 0c7dab9
  • Encoding settings                        : cabac=1 / ref=4 / deblock=1:0:0 / analyse=0x3:0x133 / me=umh / subme=7 / psy=1 / psy_rd=1.00:0.00 / mixed_ref=1 / me_range=16 / chroma_me=1 / trellis=1 / 8x8dct=1 / cqm=0 / deadzone=21,11 / fast_pskip=0 / chroma_qp_offset=-2 / threads=12 / sliced_threads=0 / nr=0 / decimate=1 / interlaced=0 / bluray_compat=0 / constrained_intra=0 / bframes=3 / b_pyramid=2 / b_adapt=1 / b_bias=0 / direct=1 / weightb=1 / open_gop=0 / weightp=2 / keyint=250 / keyint_min=23 / scenecut=40 / intra_refresh=0 / rc_lookahead=40 / rc=2pass / mbtree=1 / bitrate=8271 / ratetol=1.0 / qcomp=0.60 / qpmin=0 / qpmax=69 / qpstep=4 / cplxblur=20.0 / qblur=0.5 / ip_ratio=1.40 / aq=1:1.00
  • Language                                 : English
  • Default                                  : Yes
  • Forced                                   : No
  • Audio
  • ID                                       : 2
  • Format                                   : DTS
  • Format/Info                              : Digital Theater Systems
  • Mode                                     : 16
  • Format settings, Endianness              : Big
  • Muxing mode                              : Header stripping
  • Codec ID                                 : A_DTS
  • Duration                                 : 2 h 39 min
  • Bit rate mode                            : Constant
  • Bit rate                                 : 1 509 kb/s
  • Channel(s)                               : 6 channels
  • Channel positions                        : Front: L C R, Side: L R, LFE
  • Sampling rate                            : 48.0 kHz
  • Frame rate                               : 93.750 FPS (512 spf)
  • Bit depth                                : 24 bits
  • Compression mode                         : Lossy
  • Stream size                              : 1.69 GiB (15%)
  • Language                                 : English
  • Default                                  : Yes
  • Forced                                   : No
  • Menu
  • 00:00:00.000                             : en:00:00:00.000
  • 00:04:32.189                             : en:00:04:32.189
  • 00:06:34.769                             : en:00:06:34.769
  • 00:21:16.192                             : en:00:21:16.192
  • 00:24:56.412                             : en:00:24:56.412
  • 00:29:27.474                             : en:00:29:27.474
  • 00:34:41.955                             : en:00:34:41.955
  • 00:40:49.530                             : en:00:40:49.530
  • 00:44:49.103                             : en:00:44:49.103
  • 00:45:52.208                             : en:00:45:52.208
  • 00:56:18.584                             : en:00:56:18.584
  • 01:03:17.502                             : en:01:03:17.502
  • 01:14:52.905                             : en:01:14:52.905
  • 01:25:19.781                             : en:01:25:19.781
  • 01:27:10.142                             : en:01:27:10.142
  • 01:34:40.383                             : en:01:34:40.383
  • 01:36:53.891                             : en:01:36:53.891
  • 01:45:28.572                             : en:01:45:28.572
  • 01:47:27.650                             : en:01:47:27.650
  • 01:57:07.062                             : en:01:57:07.062
  • 01:58:56.588                             : en:01:58:56.588
  • 02:12:23.185                             : en:02:12:23.185

[color=rgb(51, 102, 153) !important]复制代码


精彩剧照

剧院魅影:25周年纪念演出/歌剧魅影之皇家阿尔伯特大厅现场演出版 The.Phantom.Of.The.Opera.At.The.Royal.A ...

剧院魅影:25周年纪念演出/歌剧魅影之皇家阿尔伯特大厅现场演出版 The.Phantom.Of.The.Opera.At.The.Royal.A ...

剧院魅影:25周年纪念演出/歌剧魅影之皇家阿尔伯特大厅现场演出版 The.Phantom.Of.The.Opera.At.The.Royal.A ...

剧院魅影:25周年纪念演出/歌剧魅影之皇家阿尔伯特大厅现场演出版 The.Phantom.Of.The.Opera.At.The.Royal.A ...

剧院魅影:25周年纪念演出/歌剧魅影之皇家阿尔伯特大厅现场演出版 The.Phantom.Of.The.Opera.At.The.Royal.A ...

剧院魅影:25周年纪念演出/歌剧魅影之皇家阿尔伯特大厅现场演出版 The.Phantom.Of.The.Opera.At.The.Royal.A ...

剧院魅影:25周年纪念演出/歌剧魅影之皇家阿尔伯特大厅现场演出版 The.Phantom.Of.The.Opera.At.The.Royal.A ...

剧院魅影:25周年纪念演出/歌剧魅影之皇家阿尔伯特大厅现场演出版 The.Phantom.Of.The.Opera.At.The.Royal.A ...

剧院魅影:25周年纪念演出/歌剧魅影之皇家阿尔伯特大厅现场演出版 The.Phantom.Of.The.Opera.At.The.Royal.A ...

剧院魅影:25周年纪念演出/歌剧魅影之皇家阿尔伯特大厅现场演出版 The.Phantom.Of.The.Opera.At.The.Royal.A ...

剧院魅影:25周年纪念演出/歌剧魅影之皇家阿尔伯特大厅现场演出版 The.Phantom.Of.The.Opera.At.The.Royal.A ...

剧院魅影:25周年纪念演出/歌剧魅影之皇家阿尔伯特大厅现场演出版 The.Phantom.Of.The.Opera.At.The.Royal.A ...



蓝光高清网提示您  点击下方附件名称  马上开始下载

The.Phantom.Of.The.Opera.At.The.Royal.Albert.Hall.2011.1080p.BluRay.x264-HD4U.torrent (55.18 KB, 下载次数: 5)

加入蓝光高清网VIP会员  无限制下载本站所有资源---点此加入

资源下载、资源播放、字幕使用、无法下载等常见问题---点这里

回复

使用道具 举报

精彩评论5

hhh666 发表于 2019-7-10 09:22:40 | 显示全部楼层
lkjlsdfadfsfasasdfasfa

加入蓝光高清网VIP会员  无限制下载本站所有资源---点此加入

资源下载、资源播放、字幕使用、无法下载等常见问题---点这里

回复

使用道具 举报

雨的承诺 发表于 2019-7-25 12:54:26 | 显示全部楼层
感謝分享

加入蓝光高清网VIP会员  无限制下载本站所有资源---点此加入

资源下载、资源播放、字幕使用、无法下载等常见问题---点这里

回复

使用道具 举报

jhlgplVIP会员 发表于 2019-7-28 16:23:59 | 显示全部楼层
很好,外国的歌剧

加入蓝光高清网VIP会员  无限制下载本站所有资源---点此加入

资源下载、资源播放、字幕使用、无法下载等常见问题---点这里

回复

使用道具 举报

netant1225 发表于 2019-8-2 07:24:50 | 显示全部楼层

好网站 希望越来越好

加入蓝光高清网VIP会员  无限制下载本站所有资源---点此加入

资源下载、资源播放、字幕使用、无法下载等常见问题---点这里

回复

使用道具 举报

幽幽高手 发表于 2019-10-17 11:21:59 | 显示全部楼层

收藏了  谢谢

加入蓝光高清网VIP会员  无限制下载本站所有资源---点此加入

资源下载、资源播放、字幕使用、无法下载等常见问题---点这里

回复

使用道具 举报

懒得打字嘛,点击右侧快捷回复
您需要登录后才可以回帖 登录 | 立即注册

本版积分规则

关注0

粉丝0

帖子68004

发布主题
最新电影 论坛
广告位
联系我们
点击这里联系客服

服务时间:
周一到周日8:00-23:30

  • 打开微信扫一扫
    关注公众号

  • 手机QQ扫一扫
    添加客服

Archiver手机版蓝光高清网 ( 渝ICP备18006373号-2 )|网站地图

Powered by Discuz! X3.4  © 2001-2013 Comsenz Inc.