[喜剧片] 天才一族/疯狂广告人 Crazy.People.1990.1080p.AMZN.WEBRip.DDP5.1.x264-monkee 7.54GB

[复制链接]
蓝鸟VIP会员 永久VIP 发表于 2019-9-19 08:53:20 | 显示全部楼层 |阅读模式 打印 上一主题 下一主题

马上注册,轻松下载,海量资源,让你轻松玩转社区。

您需要 登录 才可以下载或查看,没有帐号?立即注册

x


译  名 天才一族 / 疯狂广告人
片  名 Crazy People
年  代 1990
产  地 美国
类  别 喜剧
语  言 英语
上映日期 1990-04-13
IMDb评分  6.0/10 from 3917 users
IMDb链接  http://www.imdb.com/title/tt0099316
豆瓣评分 7.7/10 from 903 users
豆瓣链接 https://movie.douban.com/subject/1305055/
片  长 90 分钟
导  演 托尼·比尔 Tony Bill / Barry L. Young
编  剧 米奇 马科维兹 (Mitch Markowitz)
主  演 达德利·摩尔 Dudley Moore
       达丽尔·汉纳 Daryl Hannah
       保罗·雷瑟 Paul Reiser
       马吉·汉 Maggie Han


标  签 喜剧 | 美国 | 广告 | 美国电影 | 天才一族 | 黑色幽默 | 搞笑 | 1990

简  介  

  广告人越疯狂,做出的广告就越有笑点。某广告公司的文案编辑安·莫瑞(杜德利·摩尔扮演),发现自己只能想出老实的广告文案之后,被公司送进了精神病院。然而讽刺的是,他的这种直言不讳的文案风格却大受欢迎,并开始和精神病院中的“疯子”们一起合作,写出更多既实在又疯狂得让人拍案叫绝的文案。以下就是几则“疯子”们创作的搞笑文案和片中的部分爆笑点。
  爆笑点之一:为美联航空公司做的广告文案——“乘坐美联航空公司的飞机,大部分乘客都能活着回去。”
  爆笑点之二:为邮局做的广告文案。一辆飞速行驶的邮车在公路上横冲直撞。邮递员亲切和蔼地说:“为了能把您的信件及时送达,撞死几个人又何妨?”
  爆笑点之三:给某旅行社做的巴哈马群岛的旅游广告。一个丰腴性感的比基尼女郎充斥整个画面,她的名字叫做“巴哈马”,广告语为:“进入巴哈马!”镜头一切换,无数接线员在跟投诉者解释:“我们提供的服务不包括‘进入女郎身体’这个项目。”
  爆笑点之四:一个亚裔青年精神病患者在得到了一辆汽车的奖赏后,急于试试身手,一边脚踩油门,一边骂骂咧咧:“他妈的,先轧死几个白人。”
  爆笑点之五:给纽约市做的形象广告——“这里的谋杀案发生数量比去年少了一件。”
  爆笑点之六:给索尼公司做的广告文案。播出前版本(美国人描述):“因为日本人(个子矮)的眼睛离电子元件的距离比较近,所以电器由他们生产。” 播出后版本(日本人描述):“由于西方人(个子高)的眼睛离电子元件的距离比较远,所以这种攒精密仪器的活儿由我们来干,索尼电器。”


该资源信息参数
  1. Video
  2. ID                                       : 1
  3. Format                                   : AVC
  4. Format/Info                              : Advanced Video Codec
  5. Format profile                           : <a href="/cdn-cgi/l/email-protection" class="__cf_email__" data-cfemail="9fd7f6f8f7dfd3ab">[email protected]</a>
  6. Format settings                          : CABAC / 4 Ref Frames
  7. Format settings, CABAC                   : Yes
  8. Format settings, Reference frames        : 4 frames
  9. Codec ID                                 : V_MPEG4/ISO/AVC
  10. Duration                                 : 1 h 31 min
  11. Bit rate mode                            : Variable
  12. Bit rate                                 : 11.2 Mb/s
  13. Maximum bit rate                         : 15.0 Mb/s
  14. Width                                    : 1 920 pixels
  15. Height                                   : 1 080 pixels
  16. Display aspect ratio                     : 16:9
  17. Frame rate mode                          : Constant
  18. Frame rate                               : 23.976 (24000/1001) FPS
  19. Color space                              : YUV
  20. Chroma subsampling                       : 4:2:0
  21. Bit depth                                : 8 bits
  22. Scan type                                : Progressive
  23. Bits/(Pixel*Frame)                       : 0.224
  24. Stream size                              : 7.13 GiB (95%)
  25. Writing library                          : x264 core 148 r2623 d5b2374
  26. Encoding settings                        : cabac=1 / ref=4 / deblock=1:-1:-1 / analyse=0x3:0x133 / me=umh / subme=9 / psy=1 / psy_rd=1.00:0.15 / mixed_ref=1 / me_range=24 / chroma_me=1 / trellis=2 / 8x8dct=1 / cqm=0 / deadzone=21,11 / fast_pskip=1 / chroma_qp_offset=-3 / threads=34 / lookahead_threads=5 / sliced_threads=0 / nr=150 / decimate=1 / interlaced=0 / bluray_compat=0 / constrained_intra=0 / bframes=8 / b_pyramid=2 / b_adapt=2 / b_bias=0 / direct=3 / weightb=1 / open_gop=0 / weightp=2 / keyint=120 / keyint_min=61 / scenecut=0 / intra_refresh=0 / rc_lookahead=120 / rc=crf / mbtree=1 / crf=18.0 / qcomp=0.60 / qpmin=0 / qpmax=69 / qpstep=4 / vbv_maxrate=15000 / vbv_bufsize=31250 / crf_max=0.0 / nal_hrd=vbr / filler=0 / ip_ratio=1.40 / aq=3:1.00
  27. Default                                  : Yes
  28. Forced                                   : No
  29. Color range                              : Limited
  30. Color primaries                          : BT.709
  31. Transfer characteristics                 : BT.709
  32. Matrix coefficients                      : BT.709

  33. Audio
  34. ID                                       : 2
  35. Format                                   : E-AC-3
  36. Format/Info                              : Enhanced AC-3
  37. Commercial name                          : Dolby Digital Plus
  38. Codec ID                                 : A_EAC3
  39. Duration                                 : 1 h 31 min
  40. Bit rate mode                            : Constant
  41. Bit rate                                 : 640 kb/s
  42. Channel(s)                               : 6 channels
  43. Channel layout                           : L R C LFE Ls Rs
  44. Sampling rate                            : 48.0 kHz
  45. Frame rate                               : 31.250 FPS (1536 SPF)
  46. Compression mode                         : Lossy
  47. Stream size                              : 419 MiB (5%)
  48. Language                                 : English
  49. Service kind                             : Complete Main
  50. Default                                  : Yes
  51. Forced                                   : No

  52. Text
  53. ID                                       : 3
  54. Format                                   : UTF-8
  55. Codec ID                                 : S_TEXT/UTF8
  56. Codec ID/Info                            : UTF-8 Plain Text
  57. Duration                                 : 1 h 25 min
  58. Bit rate                                 : 69 b/s
  59. Count of elements                        : 1750
  60. Stream size                              : 43.4 KiB (0%)
  61. Language                                 : English
  62. Default                                  : No
  63. Forced                                   : No
复制代码


精彩剧照




蓝光高清网提示您 点击下方附件名称 马上开始下载



温馨提示:
本站资源优先使用迅雷下载,迅雷会员下载,速度基本可以跑满宽带
如果遇到无资源或者版权问题无法下载,推荐使用115网盘离线下载(点击查看115网盘离线下载教程


  • 该资源需要您回复以后 刷新网页进行下载操作

  • 1、Crazy.People.1990.1080p.AMZN.WEBRip.DDP5.1.x264-monkee.torrent 38KB 已下载 0 次

加入蓝光高清网VIP会员  无限制下载本站所有资源---点此加入

资源下载、资源播放、字幕使用、无法下载等常见问题---点这里

回复

使用道具 举报

精彩评论1

skxzwj 发表于 2019-9-19 08:56:57 | 显示全部楼层
下载试一试

加入蓝光高清网VIP会员  无限制下载本站所有资源---点此加入

资源下载、资源播放、字幕使用、无法下载等常见问题---点这里

回复

使用道具 举报

懒得打字嘛,点击右侧快捷回复
高级模式
B Color Image Link Quote Code Smilies 上传

本版积分规则

关注0

粉丝0

帖子66311

发布主题
最新电影 论坛
广告位
联系我们
点击这里联系客服

服务时间:
周一到周日8:00-23:30

  • 打开微信扫一扫
    关注公众号

  • 手机QQ扫一扫
    添加客服

Archiver手机版蓝光高清网 ( 渝ICP备18006373号-2 )|网站地图

Powered by Discuz! X3.4  © 2001-2013 Comsenz Inc.