[动作片] 碟中谍6:全面瓦解/碟中谍6 Mission.Impossible.Fallout.2018.1080p.BluRay.REMUX.AVC.DTS-HD.MA.TrueHD.7.1.Atmos-FGT 41.45GB

[复制链接]
蓝鸟VIP会员 永久VIP 发表于 2019-9-19 16:21:19 | 显示全部楼层 |阅读模式 打印 上一主题 下一主题

马上注册,轻松下载,海量资源,让你轻松玩转社区。

您需要 登录 才可以下载或查看,没有帐号?立即注册

x

碟中谍6:全面瓦解/碟中谍6 Mission.Impossible.Fallout.2018.1080p.BluRay.REMUX.AVC.DTS-HD.MA.TrueHD.7.1.Atmos-FGT 41.45GB-1.jpg
◎译  名 碟中谍6:全面瓦解 / 碟中谍6 / 不可能的任务:全面瓦解(台) / 职业特工队:叛逆之谜(港) / Mission: Impossible 6 / MI6
◎片  名 碟中谍6:全面瓦解 Mission: Impossible - Fallout
◎年  代 2018
◎国  家 美国
◎类  别 动作 / 惊悚 / 冒险
◎语  言 英语 / 法语
◎上映日期 2018-08-31(中国大陆) / 2018-07-27(美国)
◎IMDb评分  8.0/10 from 156,447 users
◎IMDb链接  http://www.imdb.com/title/tt4912910/
◎豆瓣评分 8.2/10 from 253408 users
◎豆瓣链接 https://movie.douban.com/subject/26336252/
◎片  长 147分钟 / 148分钟(中国大陆)
◎导  演 克里斯托弗·麦奎里
◎主  演 汤姆·克鲁斯
      亨利·卡维尔
      文·瑞姆斯
      西蒙·佩吉
      丽贝卡·弗格森
      西恩·哈里斯
      安吉拉·贝塞特
      凡妮莎·柯比
      米歇尔·莫纳汉
      韦斯·本特利
      费雷德里克·施密特
      亚历克·鲍德温
      杨亮
      克里斯托弗·琼勒
      沃尔夫·布利策
      拉斐尔·琼勒
      安德鲁·卡扎纳夫·平
      克里斯多夫·德·舒瓦西
      拉裴尔·德普雷
      让·巴普蒂斯特·菲永
      马克斯·盖勒
      奥利维尔·体班德
      亚历山大·普尔
      阿利克斯·贝纳泽什
      乔伊·安沙
      维利贝·托皮奇
      格雷厄姆·福克斯
      卡斯珀·菲利普森
      菲恩·乔利
      鲁斯·贝恩
      奈杰尔·艾伦

◎简  介 

  有时好意会造成恶果,人反而被自己所造成的结果所困扰。伊桑·亨特(汤姆·克鲁斯)和他的IMF团队(亚历克·鲍德温、西蒙·佩吉、文·瑞姆斯)将在最新的电影《碟中谍6:全面瓦解》中再度回归,他们会与观众们熟悉的盟友(丽贝卡·弗格森、米歇尔·莫娜汉)一起与时间赛跑,应对一次任务中出现的意外。亨利·卡维尔、安吉拉·贝塞特和凡妮莎·柯比也将加入本片的演员阵容,电影制片人克里斯托夫·迈考利将会再度担任导演。



该资源信息参数

  1. Video
  2. ID                                       : 1
  3. Format                                   : AVC
  4. Format/Info                              : Advanced Video Codec
  5. Format profile                           : [email protected]
  6. Format settings                          : CABAC / 4 Ref Frames
  7. Format settings, CABAC                   : Yes
  8. Format settings, ReFrames                : 4 frames
  9. Codec ID                                 : V_MPEG4/ISO/AVC
  10. Duration                                 : 2 h 27 min
  11. Bit rate mode                            : Variable
  12. Bit rate                                 : 26.2 Mb/s
  13. Maximum bit rate                         : 28.0 Mb/s
  14. Width                                    : 1 920 pixels
  15. Height                                   : 1 080 pixels
  16. Display aspect ratio                     : 16:9
  17. Frame rate mode                          : Constant
  18. Frame rate                               : 23.976 (24000/1001) FPS
  19. Color space                              : YUV
  20. Chroma subsampling                       : 4:2:0
  21. Bit depth                                : 8 bits
  22. Scan type                                : Progressive
  23. Bits/(Pixel*Frame)                       : 0.527
  24. Stream size                              : 27.0 GiB (65%)
  25. Title                                    : Mission.Impossible.Fallout.2018.1080p.BluRay.REMUX.AVC.DTS-HD.MA.TrueHD.7.1.Atmos-FGT
  26. Language                                 : English
  27. Default                                  : No
  28. Forced                                   : No

  29. Audio #1
  30. ID                                       : 2
  31. Format                                   : MLP FBA 16-ch
  32. Format/Info                              : Meridian Lossless Packing FBA with 16-channel presentation
  33. Commercial name                          : Dolby TrueHD with Dolby Atmos
  34. Codec ID                                 : A_TRUEHD
  35. Duration                                 : 2 h 27 min
  36. Bit rate mode                            : Variable
  37. Bit rate                                 : 5 026 kb/s
  38. Maximum bit rate                         : 8 175 kb/s
  39. Channel(s)                               : 8 channels
  40. Channel layout                           : L R C LFE Ls Rs Lb Rb
  41. Sampling rate                            : 48.0 kHz
  42. Frame rate                               : 1 200.000 FPS (40 SPF)
  43. Compression mode                         : Lossless
  44. Stream size                              : 5.17 GiB (12%)
  45. Title                                    : Mission.Impossible.Fallout.2018.1080p.BluRay.REMUX.AVC.DTS-HD.MA.TrueHD.7.1.Atmos-FGT
  46. Language                                 : English
  47. Default                                  : Yes
  48. Forced                                   : No
  49. Number of dynamic objects                : 11
  50. Bed channel count                        : 1 channel
  51. Bed channel configuration                : LFE

  52. Audio #2
  53. ID                                       : 3
  54. Format                                   : DTS XLL
  55. Format/Info                              : Digital Theater Systems
  56. Commercial name                          : DTS-HD Master Audio
  57. Codec ID                                 : A_DTS
  58. Duration                                 : 2 h 27 min
  59. Bit rate mode                            : Variable
  60. Bit rate                                 : 4 182 kb/s
  61. Channel(s)                               : 8 channels
  62. Channel layout                           : C L R LFE Lb Rb Lss Rss
  63. Sampling rate                            : 48.0 kHz
  64. Frame rate                               : 93.750 FPS (512 SPF)
  65. Bit depth                                : 24 bits
  66. Compression mode                         : Lossless
  67. Stream size                              : 4.31 GiB (10%)
  68. Title                                    : Mission.Impossible.Fallout.2018.1080p.BluRay.REMUX.AVC.DTS-HD.MA.TrueHD.7.1.Atmos-FGT
  69. Language                                 : English
  70. Default                                  : No
  71. Forced                                   : No

  72. Audio #3
  73. ID                                       : 4
  74. Format                                   : AC-3
  75. Format/Info                              : Audio Coding 3
  76. Commercial name                          : Dolby Digital
  77. Codec ID                                 : A_AC3
  78. Duration                                 : 2 h 27 min
  79. Bit rate mode                            : Constant
  80. Bit rate                                 : 640 kb/s
  81. Channel(s)                               : 6 channels
  82. Channel layout                           : L R C LFE Ls Rs
  83. Sampling rate                            : 48.0 kHz
  84. Frame rate                               : 31.250 FPS (1536 SPF)
  85. Bit depth                                : 16 bits
  86. Compression mode                         : Lossy
  87. Stream size                              : 675 MiB (2%)
  88. Title                                    : Mission.Impossible.Fallout.2018.1080p.BluRay.REMUX.AVC.DTS-HD.MA.TrueHD.7.1.Atmos-FGT
  89. Language                                 : English
  90. Service kind                             : Complete Main
  91. Default                                  : No
  92. Forced                                   : No

  93. Audio #4
  94. ID                                       : 5
  95. Format                                   : AC-3
  96. Format/Info                              : Audio Coding 3
  97. Commercial name                          : Dolby Digital
  98. Codec ID                                 : A_AC3
  99. Duration                                 : 2 h 27 min
  100. Bit rate mode                            : Constant
  101. Bit rate                                 : 640 kb/s
  102. Channel(s)                               : 6 channels
  103. Channel layout                           : L R C LFE Ls Rs
  104. Sampling rate                            : 48.0 kHz
  105. Frame rate                               : 31.250 FPS (1536 SPF)
  106. Bit depth                                : 16 bits
  107. Compression mode                         : Lossy
  108. Stream size                              : 675 MiB (2%)
  109. Title                                    : Mission.Impossible.Fallout.2018.1080p.BluRay.REMUX.AVC.DTS-HD.MA.TrueHD.7.1.Atmos-FGT
  110. Language                                 : French
  111. Service kind                             : Complete Main
  112. Default                                  : No
  113. Forced                                   : No

  114. Audio #5
  115. ID                                       : 6
  116. Format                                   : AC-3
  117. Format/Info                              : Audio Coding 3
  118. Commercial name                          : Dolby Digital
  119. Codec ID                                 : A_AC3
  120. Duration                                 : 2 h 27 min
  121. Bit rate mode                            : Constant
  122. Bit rate                                 : 640 kb/s
  123. Channel(s)                               : 6 channels
  124. Channel layout                           : L R C LFE Ls Rs
  125. Sampling rate                            : 48.0 kHz
  126. Frame rate                               : 31.250 FPS (1536 SPF)
  127. Bit depth                                : 16 bits
  128. Compression mode                         : Lossy
  129. Stream size                              : 675 MiB (2%)
  130. Title                                    : Mission.Impossible.Fallout.2018.1080p.BluRay.REMUX.AVC.DTS-HD.MA.TrueHD.7.1.Atmos-FGT
  131. Language                                 : Spanish
  132. Service kind                             : Complete Main
  133. Default                                  : No
  134. Forced                                   : No

  135. Audio #6
  136. ID                                       : 7
  137. Format                                   : AC-3
  138. Format/Info                              : Audio Coding 3
  139. Commercial name                          : Dolby Digital
  140. Codec ID                                 : A_AC3
  141. Duration                                 : 2 h 27 min
  142. Bit rate mode                            : Constant
  143. Bit rate                                 : 640 kb/s
  144. Channel(s)                               : 6 channels
  145. Channel layout                           : L R C LFE Ls Rs
  146. Sampling rate                            : 48.0 kHz
  147. Frame rate                               : 31.250 FPS (1536 SPF)
  148. Bit depth                                : 16 bits
  149. Compression mode                         : Lossy
  150. Stream size                              : 675 MiB (2%)
  151. Title                                    : Mission.Impossible.Fallout.2018.1080p.BluRay.REMUX.AVC.DTS-HD.MA.TrueHD.7.1.Atmos-FGT
  152. Language                                 : Portuguese
  153. Service kind                             : Complete Main
  154. Default                                  : No
  155. Forced                                   : No

  156. Audio #7
  157. ID                                       : 8
  158. Format                                   : AC-3
  159. Format/Info                              : Audio Coding 3
  160. Commercial name                          : Dolby Digital
  161. Codec ID                                 : A_AC3
  162. Duration                                 : 2 h 27 min
  163. Bit rate mode                            : Constant
  164. Bit rate                                 : 640 kb/s
  165. Channel(s)                               : 6 channels
  166. Channel layout                           : L R C LFE Ls Rs
  167. Sampling rate                            : 48.0 kHz
  168. Frame rate                               : 31.250 FPS (1536 SPF)
  169. Bit depth                                : 16 bits
  170. Compression mode                         : Lossy
  171. Stream size                              : 675 MiB (2%)
  172. Title                                    : Mission.Impossible.Fallout.2018.1080p.BluRay.REMUX.AVC.DTS-HD.MA.TrueHD.7.1.Atmos-FGT
  173. Language                                 : English
  174. Service kind                             : Complete Main
  175. Default                                  : No
  176. Forced                                   : No

  177. Audio #8
  178. ID                                       : 9
  179. Format                                   : AC-3
  180. Format/Info                              : Audio Coding 3
  181. Commercial name                          : Dolby Digital
  182. Codec ID                                 : A_AC3
  183. Duration                                 : 2 h 27 min
  184. Bit rate mode                            : Constant
  185. Bit rate                                 : 224 kb/s
  186. Channel(s)                               : 2 channels
  187. Channel layout                           : L R
  188. Sampling rate                            : 48.0 kHz
  189. Frame rate                               : 31.250 FPS (1536 SPF)
  190. Bit depth                                : 16 bits
  191. Compression mode                         : Lossy
  192. Stream size                              : 236 MiB (1%)
  193. Title                                    : Mission.Impossible.Fallout.2018.1080p.BluRay.REMUX.AVC.DTS-HD.MA.TrueHD.7.1.Atmos-FGT
  194. Language                                 : English
  195. Service kind                             : Complete Main
  196. Default                                  : No
  197. Forced                                   : No

  198. Audio #9
  199. ID                                       : 10
  200. Format                                   : AC-3
  201. Format/Info                              : Audio Coding 3
  202. Commercial name                          : Dolby Digital
  203. Codec ID                                 : A_AC3
  204. Duration                                 : 2 h 27 min
  205. Bit rate mode                            : Constant
  206. Bit rate                                 : 224 kb/s
  207. Channel(s)                               : 2 channels
  208. Channel layout                           : L R
  209. Sampling rate                            : 48.0 kHz
  210. Frame rate                               : 31.250 FPS (1536 SPF)
  211. Bit depth                                : 16 bits
  212. Compression mode                         : Lossy
  213. Stream size                              : 236 MiB (1%)
  214. Title                                    : Mission.Impossible.Fallout.2018.1080p.BluRay.REMUX.AVC.DTS-HD.MA.TrueHD.7.1.Atmos-FGT
  215. Language                                 : English
  216. Service kind                             : Complete Main
  217. Default                                  : No
  218. Forced                                   : No

  219. Audio #10
  220. ID                                       : 11
  221. Format                                   : AC-3
  222. Format/Info                              : Audio Coding 3
  223. Commercial name                          : Dolby Digital
  224. Codec ID                                 : A_AC3
  225. Duration                                 : 2 h 27 min
  226. Bit rate mode                            : Constant
  227. Bit rate                                 : 224 kb/s
  228. Channel(s)                               : 2 channels
  229. Channel layout                           : L R
  230. Sampling rate                            : 48.0 kHz
  231. Frame rate                               : 31.250 FPS (1536 SPF)
  232. Bit depth                                : 16 bits
  233. Compression mode                         : Lossy
  234. Stream size                              : 236 MiB (1%)
  235. Title                                    : Mission.Impossible.Fallout.2018.1080p.BluRay.REMUX.AVC.DTS-HD.MA.TrueHD.7.1.Atmos-FGT
  236. Language                                 : English
  237. Service kind                             : Complete Main
  238. Default                                  : No
  239. Forced                                   : No

  240. Audio #11
  241. ID                                       : 12
  242. Format                                   : AC-3
  243. Format/Info                              : Audio Coding 3
  244. Commercial name                          : Dolby Digital
  245. Codec ID                                 : A_AC3
  246. Duration                                 : 2 h 27 min
  247. Bit rate mode                            : Constant
  248. Bit rate                                 : 640 kb/s
  249. Channel(s)                               : 6 channels
  250. Channel layout                           : L R C LFE Ls Rs
  251. Sampling rate                            : 48.0 kHz
  252. Frame rate                               : 31.250 FPS (1536 SPF)
  253. Bit depth                                : 16 bits
  254. Compression mode                         : Lossy
  255. Stream size                              : 675 MiB (2%)
  256. Title                                    : Mission.Impossible.Fallout.2018.1080p.BluRay.REMUX.AVC.DTS-HD.MA.TrueHD.7.1.Atmos-FGT
  257. Language                                 : English
  258. Service kind                             : Complete Main
  259. Default                                  : No
  260. Forced                                   : No

  261. Text #1
  262. ID                                       : 13
  263. Format                                   : UTF-8
  264. Codec ID                                 : S_TEXT/UTF8
  265. Codec ID/Info                            : UTF-8 Plain Text
  266. Duration                                 : 2 h 19 min
  267. Bit rate                                 : 46 b/s
  268. Count of elements                        : 1566
  269. Stream size                              : 47.1 KiB (0%)
  270. Title                                    : English-SRT
  271. Language                                 : English
  272. Default                                  : Yes
  273. Forced                                   : No

  274. Text #2
  275. ID                                       : 14
  276. Format                                   : UTF-8
  277. Codec ID                                 : S_TEXT/UTF8
  278. Codec ID/Info                            : UTF-8 Plain Text
  279. Duration                                 : 2 h 19 min
  280. Bit rate                                 : 52 b/s
  281. Count of elements                        : 1872
  282. Stream size                              : 53.7 KiB (0%)
  283. Title                                    : English-SDH-SRT
  284. Language                                 : English
  285. Default                                  : No
  286. Forced                                   : No

  287. Text #3
  288. ID                                       : 15
  289. Format                                   : PGS
  290. Muxing mode                              : zlib
  291. Codec ID                                 : S_HDMV/PGS
  292. Codec ID/Info                            : Picture based subtitle format used on BDs/HD-DVDs
  293. Duration                                 : 2 h 19 min
  294. Bit rate                                 : 29.7 kb/s
  295. Count of elements                        : 3111
  296. Stream size                              : 29.5 MiB (0%)
  297. Title                                    : English-PGS
  298. Language                                 : English
  299. Default                                  : No
  300. Forced                                   : No

  301. Text #4
  302. ID                                       : 16
  303. Format                                   : PGS
  304. Muxing mode                              : zlib
  305. Codec ID                                 : S_HDMV/PGS
  306. Codec ID/Info                            : Picture based subtitle format used on BDs/HD-DVDs
  307. Duration                                 : 2 h 19 min
  308. Bit rate                                 : 35.2 kb/s
  309. Count of elements                        : 3747
  310. Stream size                              : 35.1 MiB (0%)
  311. Title                                    : English-SDH-PGS
  312. Language                                 : English
  313. Default                                  : No
  314. Forced                                   : No

  315. Text #5
  316. ID                                       : 17
  317. Format                                   : PGS
  318. Muxing mode                              : zlib
  319. Codec ID                                 : S_HDMV/PGS
  320. Codec ID/Info                            : Picture based subtitle format used on BDs/HD-DVDs
  321. Duration                                 : 32 min 11 s
  322. Bit rate                                 : 671 b/s
  323. Count of elements                        : 37
  324. Stream size                              : 158 KiB (0%)
  325. Title                                    : English-FORCED-PGS
  326. Language                                 : English
  327. Default                                  : No
  328. Forced                                   : No

  329. Text #6
  330. ID                                       : 18
  331. Format                                   : PGS
  332. Muxing mode                              : zlib
  333. Codec ID                                 : S_HDMV/PGS
  334. Codec ID/Info                            : Picture based subtitle format used on BDs/HD-DVDs
  335. Duration                                 : 2 h 19 min
  336. Bit rate                                 : 29.7 kb/s
  337. Count of elements                        : 3327
  338. Stream size                              : 29.6 MiB (0%)
  339. Title                                    : French-PGS
  340. Language                                 : French
  341. Default                                  : No
  342. Forced                                   : No

  343. Text #7
  344. ID                                       : 19
  345. Format                                   : PGS
  346. Muxing mode                              : zlib
  347. Codec ID                                 : S_HDMV/PGS
  348. Codec ID/Info                            : Picture based subtitle format used on BDs/HD-DVDs
  349. Duration                                 : 2 h 1 min
  350. Bit rate                                 : 260 b/s
  351. Count of elements                        : 26
  352. Stream size                              : 232 KiB (0%)
  353. Title                                    : French-FORCED-PGS
  354. Language                                 : French
  355. Default                                  : No
  356. Forced                                   : No

  357. Text #8
  358. ID                                       : 20
  359. Format                                   : PGS
  360. Muxing mode                              : zlib
  361. Codec ID                                 : S_HDMV/PGS
  362. Codec ID/Info                            : Picture based subtitle format used on BDs/HD-DVDs
  363. Duration                                 : 2 h 19 min
  364. Bit rate                                 : 28.2 kb/s
  365. Count of elements                        : 2788
  366. Stream size                              : 28.1 MiB (0%)
  367. Title                                    : Spanish-PGS
  368. Language                                 : Spanish
  369. Default                                  : No
  370. Forced                                   : No

  371. Text #9
  372. ID                                       : 21
  373. Format                                   : PGS
  374. Muxing mode                              : zlib
  375. Codec ID                                 : S_HDMV/PGS
  376. Codec ID/Info                            : Picture based subtitle format used on BDs/HD-DVDs
  377. Duration                                 : 2 h 1 min
  378. Bit rate                                 : 480 b/s
  379. Count of elements                        : 67
  380. Stream size                              : 429 KiB (0%)
  381. Title                                    : Spanish-FORCED-PGS
  382. Language                                 : Spanish
  383. Default                                  : No
  384. Forced                                   : No

  385. Text #10
  386. ID                                       : 22
  387. Format                                   : PGS
  388. Muxing mode                              : zlib
  389. Codec ID                                 : S_HDMV/PGS
  390. Codec ID/Info                            : Picture based subtitle format used on BDs/HD-DVDs
  391. Duration                                 : 2 h 19 min
  392. Bit rate                                 : 23.6 kb/s
  393. Count of elements                        : 2750
  394. Stream size                              : 23.5 MiB (0%)
  395. Title                                    : Portuguese-PGS
  396. Language                                 : Portuguese
  397. Default                                  : No
  398. Forced                                   : No

  399. Text #11
  400. ID                                       : 23
  401. Format                                   : PGS
  402. Muxing mode                              : zlib
  403. Codec ID                                 : S_HDMV/PGS
  404. Codec ID/Info                            : Picture based subtitle format used on BDs/HD-DVDs
  405. Duration                                 : 2 h 2 min
  406. Bit rate                                 : 414 b/s
  407. Count of elements                        : 70
  408. Stream size                              : 373 KiB (0%)
  409. Title                                    : Portuguese-FORCED-PGS
  410. Language                                 : Portuguese
  411. Default                                  : No
  412. Forced                                   : No

  413. Text #12
  414. ID                                       : 24
  415. Format                                   : PGS
  416. Muxing mode                              : zlib
  417. Codec ID                                 : S_HDMV/PGS
  418. Codec ID/Info                            : Picture based subtitle format used on BDs/HD-DVDs
  419. Duration                                 : 2 h 27 min
  420. Bit rate                                 : 82.4 kb/s
  421. Count of elements                        : 6950
  422. Stream size                              : 86.8 MiB (0%)
  423. Title                                    : English-COMMENTARY-PGS
  424. Language                                 : English
  425. Default                                  : No
  426. Forced                                   : No

  427. Text #13
  428. ID                                       : 25
  429. Format                                   : PGS
  430. Muxing mode                              : zlib
  431. Codec ID                                 : S_HDMV/PGS
  432. Codec ID/Info                            : Picture based subtitle format used on BDs/HD-DVDs
  433. Duration                                 : 2 h 27 min
  434. Bit rate                                 : 72.8 kb/s
  435. Count of elements                        : 6950
  436. Stream size                              : 76.7 MiB (0%)
  437. Title                                    : French-COMMENTARY-PGS
  438. Language                                 : French
  439. Default                                  : No
  440. Forced                                   : No

  441. Text #14
  442. ID                                       : 26
  443. Format                                   : PGS
  444. Muxing mode                              : zlib
  445. Codec ID                                 : S_HDMV/PGS
  446. Codec ID/Info                            : Picture based subtitle format used on BDs/HD-DVDs
  447. Duration                                 : 2 h 27 min
  448. Bit rate                                 : 74.9 kb/s
  449. Count of elements                        : 6950
  450. Stream size                              : 78.9 MiB (0%)
  451. Title                                    : Spanish-COMMENTARY-PGS
  452. Language                                 : Spanish
  453. Default                                  : No
  454. Forced                                   : No

  455. Text #15
  456. ID                                       : 27
  457. Format                                   : PGS
  458. Muxing mode                              : zlib
  459. Codec ID                                 : S_HDMV/PGS
  460. Codec ID/Info                            : Picture based subtitle format used on BDs/HD-DVDs
  461. Duration                                 : 2 h 27 min
  462. Bit rate                                 : 75.1 kb/s
  463. Count of elements                        : 6950
  464. Stream size                              : 79.0 MiB (0%)
  465. Title                                    : Portuguese-COMMENTARY-PGS
  466. Language                                 : Portuguese
  467. Default                                  : No
  468. Forced                                   : No

  469. Text #16
  470. ID                                       : 28
  471. Format                                   : PGS
  472. Muxing mode                              : zlib
  473. Codec ID                                 : S_HDMV/PGS
  474. Codec ID/Info                            : Picture based subtitle format used on BDs/HD-DVDs
  475. Duration                                 : 2 h 25 min
  476. Bit rate                                 : 83.8 kb/s
  477. Count of elements                        : 6544
  478. Stream size                              : 87.3 MiB (0%)
  479. Title                                    : English-COMMENTARY-PGS
  480. Language                                 : English
  481. Default                                  : No
  482. Forced                                   : No

  483. Text #17
  484. ID                                       : 29
  485. Format                                   : PGS
  486. Muxing mode                              : zlib
  487. Codec ID                                 : S_HDMV/PGS
  488. Codec ID/Info                            : Picture based subtitle format used on BDs/HD-DVDs
  489. Duration                                 : 2 h 25 min
  490. Bit rate                                 : 78.2 kb/s
  491. Count of elements                        : 6544
  492. Stream size                              : 81.5 MiB (0%)
  493. Title                                    : French-COMMENTARY-PGS
  494. Language                                 : French
  495. Default                                  : No
  496. Forced                                   : No

  497. Text #18
  498. ID                                       : 30
  499. Format                                   : PGS
  500. Muxing mode                              : zlib
  501. Codec ID                                 : S_HDMV/PGS
  502. Codec ID/Info                            : Picture based subtitle format used on BDs/HD-DVDs
  503. Duration                                 : 2 h 25 min
  504. Bit rate                                 : 74.9 kb/s
  505. Count of elements                        : 6544
  506. Stream size                              : 78.0 MiB (0%)
  507. Title                                    : Spanish-COMMENTARY-PGS
  508. Language                                 : Spanish
  509. Default                                  : No
  510. Forced                                   : No

  511. Text #19
  512. ID                                       : 31
  513. Format                                   : PGS
  514. Muxing mode                              : zlib
  515. Codec ID                                 : S_HDMV/PGS
  516. Codec ID/Info                            : Picture based subtitle format used on BDs/HD-DVDs
  517. Duration                                 : 2 h 25 min
  518. Bit rate                                 : 79.0 kb/s
  519. Count of elements                        : 6544
  520. Stream size                              : 82.4 MiB (0%)
  521. Title                                    : Portuguese-COMMENTARY-PGS
  522. Language                                 : Portuguese
  523. Default                                  : No
  524. Forced                                   : No

  525. Text #20
  526. ID                                       : 32
  527. Format                                   : PGS
  528. Muxing mode                              : zlib
  529. Codec ID                                 : S_HDMV/PGS
  530. Codec ID/Info                            : Picture based subtitle format used on BDs/HD-DVDs
  531. Duration                                 : 2 h 21 min
  532. Bit rate                                 : 41.6 kb/s
  533. Count of elements                        : 3662
  534. Stream size                              : 42.1 MiB (0%)
  535. Title                                    : English-COMMENTARY-PGS
  536. Language                                 : English
  537. Default                                  : No
  538. Forced                                   : No

  539. Text #21
  540. ID                                       : 33
  541. Format                                   : PGS
  542. Muxing mode                              : zlib
  543. Codec ID                                 : S_HDMV/PGS
  544. Codec ID/Info                            : Picture based subtitle format used on BDs/HD-DVDs
  545. Duration                                 : 2 h 21 min
  546. Bit rate                                 : 43.0 kb/s
  547. Count of elements                        : 3662
  548. Stream size                              : 43.4 MiB (0%)
  549. Title                                    : French-COMMENTARY-PGS
  550. Language                                 : French
  551. Default                                  : No
  552. Forced                                   : No

  553. Text #22
  554. ID                                       : 34
  555. Format                                   : PGS
  556. Muxing mode                              : zlib
  557. Codec ID                                 : S_HDMV/PGS
  558. Codec ID/Info                            : Picture based subtitle format used on BDs/HD-DVDs
  559. Duration                                 : 2 h 21 min
  560. Bit rate                                 : 42.3 kb/s
  561. Count of elements                        : 3662
  562. Stream size                              : 42.8 MiB (0%)
  563. Title                                    : Spanish-COMMENTARY-PGS
  564. Language                                 : Spanish
  565. Default                                  : No
  566. Forced                                   : No

  567. Text #23
  568. ID                                       : 35
  569. Format                                   : PGS
  570. Muxing mode                              : zlib
  571. Codec ID                                 : S_HDMV/PGS
  572. Codec ID/Info                            : Picture based subtitle format used on BDs/HD-DVDs
  573. Duration                                 : 2 h 21 min
  574. Bit rate                                 : 41.2 kb/s
  575. Count of elements                        : 3662
  576. Stream size                              : 41.7 MiB (0%)
  577. Title                                    : Portuguese-COMMENTARY-PGS
  578. Language                                 : Portuguese
  579. Default                                  : No
  580. Forced                                   : No

  581. Menu
  582. 00:00:00.000                             : en:Chapter 01
  583. 00:10:37.011                             : en:Chapter 02
  584. 00:17:11.405                             : en:Chapter 03
  585. 00:26:57.240                             : en:Chapter 04
  586. 00:35:56.654                             : en:Chapter 05
  587. 00:49:18.413                             : en:Chapter 06
  588. 01:00:00.805                             : en:Chapter 07
  589. 01:10:23.719                             : en:Chapter 08
  590. 01:17:07.289                             : en:Chapter 09
  591. 01:28:28.469                             : en:Chapter 10
  592. 01:39:09.526                             : en:Chapter 11
  593. 01:46:26.546                             : en:Chapter 12
  594. 01:55:45.563                             : en:Chapter 13
  595. 02:03:10.591                             : en:Chapter 14
  596. 02:14:01.283                             : en:Chapter 15
  597. 02:19:48.088                             : en:Chapter 16
复制代码




精彩剧照

碟中谍6:全面瓦解/碟中谍6 Mission.Impossible.Fallout.2018.1080p.BluRay.REMUX.AVC.DTS-HD.MA.TrueHD.7.1.Atmos-FGT 41.45GB-2.png 碟中谍6:全面瓦解/碟中谍6 Mission.Impossible.Fallout.2018.1080p.BluRay.REMUX.AVC.DTS-HD.MA.TrueHD.7.1.Atmos-FGT 41.45GB-3.png 碟中谍6:全面瓦解/碟中谍6 Mission.Impossible.Fallout.2018.1080p.BluRay.REMUX.AVC.DTS-HD.MA.TrueHD.7.1.Atmos-FGT 41.45GB-4.png


蓝光高清网提示您 点击下方附件名称 马上开始下载

温馨提示:
本站资源优先使用迅雷下载,迅雷会员下载,速度基本可以跑满宽带
如果遇到无资源或者版权问题无法下载,推荐使用115网盘离线下载(点击查看115网盘离线下载教程


加入蓝光高清网VIP会员  无限制下载本站所有资源---点此加入

资源下载、资源播放、字幕使用、无法下载等常见问题---点这里

回复

使用道具 举报

精彩评论12

shan0363 发表于 2019-9-19 17:16:00 | 显示全部楼层
sssssssssssssssssss

加入蓝光高清网VIP会员  无限制下载本站所有资源---点此加入

资源下载、资源播放、字幕使用、无法下载等常见问题---点这里

回复

使用道具 举报

elaine1 发表于 2019-9-19 18:21:40 | 显示全部楼层
这个帖子不回对不起自己!我想我是一天也不能离开蓝光高清网了

加入蓝光高清网VIP会员  无限制下载本站所有资源---点此加入

资源下载、资源播放、字幕使用、无法下载等常见问题---点这里

回复

使用道具 举报

HPaRmCDp 发表于 2019-9-19 18:41:50 | 显示全部楼层
这个帖子不回对不起自己!我想我是一天也不能离开蓝光高清网了

加入蓝光高清网VIP会员  无限制下载本站所有资源---点此加入

资源下载、资源播放、字幕使用、无法下载等常见问题---点这里

回复

使用道具 举报

阳光 发表于 2019-9-25 08:57:59 | 显示全部楼层
有东西吗,看看

加入蓝光高清网VIP会员  无限制下载本站所有资源---点此加入

资源下载、资源播放、字幕使用、无法下载等常见问题---点这里

回复

使用道具 举报

dgjbestVIP会员 发表于 2019-9-28 11:49:03 | 显示全部楼层
必须支持!

加入蓝光高清网VIP会员  无限制下载本站所有资源---点此加入

资源下载、资源播放、字幕使用、无法下载等常见问题---点这里

回复

使用道具 举报

706817554VIP会员 发表于 2019-10-6 22:53:44 | 显示全部楼层
必须支持

加入蓝光高清网VIP会员  无限制下载本站所有资源---点此加入

资源下载、资源播放、字幕使用、无法下载等常见问题---点这里

回复

使用道具 举报

706817554VIP会员 发表于 2019-10-6 22:54:02 | 显示全部楼层
必须支持

加入蓝光高清网VIP会员  无限制下载本站所有资源---点此加入

资源下载、资源播放、字幕使用、无法下载等常见问题---点这里

回复

使用道具 举报

xctglint 发表于 2019-10-7 13:27:16 | 显示全部楼层
找了好久。谢谢

加入蓝光高清网VIP会员  无限制下载本站所有资源---点此加入

资源下载、资源播放、字幕使用、无法下载等常见问题---点这里

回复

使用道具 举报

xctglint 发表于 2019-10-7 14:13:00 | 显示全部楼层
如何下载

加入蓝光高清网VIP会员  无限制下载本站所有资源---点此加入

资源下载、资源播放、字幕使用、无法下载等常见问题---点这里

回复

使用道具 举报

懒得打字嘛,点击右侧快捷回复
您需要登录后才可以回帖 登录 | 立即注册

本版积分规则

关注0

粉丝0

帖子66561

发布主题
最新电影 论坛
广告位
联系我们
点击这里联系客服

服务时间:
周一到周日8:00-23:30

  • 打开微信扫一扫
    关注公众号

  • 手机QQ扫一扫
    添加客服

Archiver手机版蓝光高清网 ( 渝ICP备18006373号-2 )|网站地图

Powered by Discuz! X3.4  © 2001-2013 Comsenz Inc.