蓝光高清网

开启左侧

[灾难片] 世界的末日 End.of.the.World.2018.1080p.BluRay.REMUX.AVC.DTS-HD.MA.5.1-FGT 17GB

[复制链接]

2021-11-24 11:12:54 14360 2

世界的末日 End.of.the.World.2018.1080p.BluRay.REMUX.AVC.DTS-HD.MA.5.1-FGT 17GB-1.jpg
译  名 世界的末日 / The End of the World
片  名 End of the World
年  代 2018
产  地 美国
类  别 灾难
语  言 英语
上映日期 2018-11-20(美国)
IMDb评分 2.6/10 from 67 users
IMDb链接 http://www.imdb.com/title/tt9341628
片  长 90分钟
导  演 Maximilian Elfeldt
编  剧 Michael Varrati
主  演 Jhey Castles
      Joseph Michael Harris
      Evan James Henderson
      Sallieu Sesay


简  介

  As mass of solar storms causes tsunamis, volcanoes, and flooding, a city-dwelling family attempts to flee to the relative safety of a group of high-elevation caves several miles away.




该资源信息参数
  1. Video
  2. ID : 1
  3. Format : AVC
  4. Format/Info : Advanced Video Codec
  5. Format profile : <a href="/cdn-cgi/l/email-protection" class="__cf_email__" data-cfemail="6820010f0028245c4659">[email protected]</a>
  6. Format settings : CABAC / 4 Ref Frames
  7. Format settings, CABAC : Yes
  8. Format settings, ReFrames : 4 frames
  9. Codec ID : V_MPEG4/ISO/AVC
  10. Duration : 1 h 28 min
  11. Bit rate mode : Variable
  12. Bit rate : 25.1 Mb/s
  13. Maximum bit rate : 35.0 Mb/s
  14. Width : 1 920 pixels
  15. Height : 1 080 pixels
  16. Display aspect ratio : 16:9
  17. Frame rate mode : Constant
  18. Frame rate : 23.976 (24000/1001) FPS
  19. Color space : YUV
  20. Chroma subsampling : 4:2:0
  21. Bit depth : 8 bits
  22. Scan type : Progressive
  23. Bits/(Pixel*Frame) : 0.505
  24. Stream size : 15.4 GiB (87%)
  25. Title : End.of.the.World.2018.1080p.BluRay.REMUX.AVC.DTS-HD.MA.5.1-FGT
  26. Language : English
  27. Default : No
  28. Forced : No
  29. Color range : Limited
  30. Color primaries : BT.709
  31. Transfer characteristics : BT.709
  32. Matrix coefficients : BT.709

  33. Audio #1
  34. ID : 2
  35. Format : DTS XLL
  36. Format/Info : Digital Theater Systems
  37. Commercial name : DTS-HD Master Audio
  38. Codec ID : A_DTS
  39. Duration : 1 h 28 min
  40. Bit rate mode : Variable
  41. Bit rate : 2 356 kb/s
  42. Channel(s) : 6 channels
  43. Channel layout : C L R Ls Rs LFE
  44. Sampling rate : 48.0 kHz
  45. Frame rate : 93.750 FPS (512 SPF)
  46. Bit depth : 16 bits
  47. Compression mode : Lossless
  48. Stream size : 1.45 GiB (8%)
  49. Title : End.of.the.World.2018.1080p.BluRay.REMUX.AVC.DTS-HD.MA.5.1-FGT
  50. Language : English
  51. Default : Yes
  52. Forced : No

  53. Audio #2
  54. ID : 3
  55. Format : DTS
  56. Format/Info : Digital Theater Systems
  57. Codec ID : A_DTS
  58. Duration : 1 h 28 min
  59. Bit rate mode : Constant
  60. Bit rate : 1 509 kb/s
  61. Channel(s) : 6 channels
  62. Channel layout : C L R Ls Rs LFE
  63. Sampling rate : 48.0 kHz
  64. Frame rate : 93.750 FPS (512 SPF)
  65. Bit depth : 16 bits
  66. Compression mode : Lossy
  67. Stream size : 951 MiB (5%)
  68. Title : End.of.the.World.2018.1080p.BluRay.REMUX.AVC.DTS-HD.MA.5.1-FGT
  69. Language : English
  70. Default : No
  71. Forced : No

  72. Menu
  73. 00:00:00.000 : en:Chapter 01
  74. 00:10:02.977 : en:Chapter 02
  75. 00:19:15.779 : en:Chapter 03
  76. 00:30:14.062 : en:Chapter 04
  77. 00:39:41.420 : en:Chapter 05
  78. 00:50:10.507 : en:Chapter 06
  79. 00:59:11.839 : en:Chapter 07
  80. 01:09:53.898 : en:Chapter 08
  81. 01:16:33.797 : en:Chapter 09
  82. 01:24:26.269 : en:Chapter 10
复制代码



精彩剧照

世界的末日 End.of.the.World.2018.1080p.BluRay.REMUX.AVC.DTS-HD.MA.5.1-FGT 17GB-2.jpg 世界的末日 End.of.the.World.2018.1080p.BluRay.REMUX.AVC.DTS-HD.MA.5.1-FGT 17GB-3.jpg


蓝光高清网提示您 点击下方附件名称 马上开始下载

End.of.the.World.2018.1080p.BluRay.REMUX.AVC.DTS-HD.MA.5.1-FGT.torrent (89.71 KB)
加入蓝光高清网VIP会员  无限制下载本站所有资源---点这里

资源下载、资源播放、字幕使用、无法下载等常见问题---点这里
回复

使用道具 举报

全部回复2

qhwen 发表于 2021-11-12 15:29:37

qhwen 沙发

2021-11-12 15:29:37

感谢分享好片!
回复 支持 反对

使用道具 举报

szjgw手机认证 发表于 2021-11-24 11:12:54

szjgw 板凳

2021-11-24 11:12:54

多谢分享好资源
回复 支持 反对

使用道具 举报

发表回复

您需要登录后才可以回帖 登录 | 立即注册

返回列表 本版积分规则

:
:
1371333023@qq.com
:
点击这里给我发消息
:
http://
:
未填写

主题97224

帖子97728

积分183041

最新推荐

  • 五十度灰4K版 Fifty Shades of Grey 2015 2

    简 介 安娜(达科塔·约翰逊 Dakot

  • 轮回 4k.Samsara.2011.2160p.WEB-DL.x265.1

    简 介   灵动的音符与舞步,天真无邪且

  • 爱情是狗娘 4k.Amores.Perros.2000.SPANISH

    简 介   三个与狗有关的故事,三段令人

  • 异形:契约 4k Alien Covenant 2017 2160p

    简 介   故事发生在一艘名为“契约”的殖

  • 四百下 / 胡作非为 / The 400 Blows/四百击

    简 介   作文课上,安托万(Jean-Pierre

  • 永恒族 Eternals.2021.1080p.BluRay.REMUX.

    ◎译  名 永恒族 / 永恒神族 / The Eternals◎

  • 变种动物园 Cryptozoo.2021.1080p.BluRay.R

    ◎译  名 变种动物园 / 怪奇兽乐园(台)◎片 

  • 海王/ 水行侠(港/台),潜水侠,水人,人鱼

    简  介   很多年前,亚特兰蒂斯女王(妮可·

  • 伦敦大烟鬼 Smoke.Over.London.1966.ITALIA

    简 介   本片由Alberto Sordi自编自导自

  • 肖申克的救赎4k The.Shawshank.Redemption.

    简 介   一场谋杀案使银行家安迪(蒂姆

  • 发帖

  • 在线客服

  • 微信

  • 客户端

  • 返回顶部