[动作片] 速度与激情:特别行动 Fast.and.Furious.Presents.Hobbs.and.Shaw.2019.1080p.KORSUB.HDRip.x264.AAC2.0-STUTTERSHIT 5.17GB

[复制链接]
蓝鸟VIP会员 永久VIP 发表于 2019-9-20 09:45:56 | 显示全部楼层 |阅读模式 打印 上一主题 下一主题

马上注册,轻松下载,海量资源,让你轻松玩转社区。

您需要 登录 才可以下载或查看,没有帐号?立即注册

x


译  名 速度与激情:特别行动 / Hobbs and Shaw / The Fast and the Furious Spinoff / 狂野时速:双雄联盟(港) / 玩命关头:特别行动(台) / 速度与基情(豆友译名) / 速度与激情外传 / 速度与激情衍生片 / 霍布斯与肖
片  名 Fast & Furious Presents: Hobbs & Shaw
年  代 2019
产  地 美国
类  别 动作 / 犯罪
语  言 英语
上映日期 2019-08-02(美国) / 2019-08-23(中国大陆)
IMDb评分  6.8/10 from 64451 users
IMDb链接  http://www.imdb.com/title/tt6806448
豆瓣评分 6.4/10 from 122826 users
豆瓣链接 https://movie.douban.com/subject/27163278/
片  长 137分钟
导  演 大卫·雷奇 David Leitch
编  剧 克里斯·摩根 Chris Morgan / 盖瑞·斯科特·汤普森 Gary Scott Thompson / 德鲁·皮尔斯 Drew Pearce
主  演 道恩·强森 Dwayne Johnson
       杰森·斯坦森 Jason Statham
       伊德里斯·艾尔巴 Idris Elba
       凡妮莎·柯比 Vanessa Kirby
       艾莎·冈萨雷斯 Eiza González
       海伦·米伦 Helen Mirren
       瑞恩·雷诺兹 Ryan Reynolds
       凯文·哈特 Kevin Hart
       埃迪·马森 Eddie Marsan
       罗曼·雷恩斯 Roman Reigns
       斯蒂芬妮·沃格特 Stephanie Vogt
       维克托里娅·菲斯 Viktorija Faith
       康兰·卡萨尔 Conlan Casal
       海伦娜·福尔摩斯 Helena Holmes
       伯纳多·桑托斯 Bernardo Santos
       露丝·霍洛克斯 Ruth Horrocks
       大卫·穆梅尼 David Mumeni
       马诺伊·阿南德 Manoj Anand
       阿玛尔·阿达蒂亚 Amar Adatia
       朱利安·费罗 Julian Ferro
       丹尼尔·厄根 Daniel Eghan
       拉普洛斯·卡伦福佐斯 Lampros Kalfuntzos
       阿克塞尔·努 Axel Nu
       史蒂夫·莱温顿 Steve Lewington
       安东尼奥·曼奇诺 Antonio Mancino
       斯特拉·斯托克尔 Stella Stocker
       克利夫·柯蒂斯 Cliff Curtis


标  签 动作 | 速度与激情:特别行动 | 美国 | 飙车 | 2019 | 犯罪 | 冒险 | 赛车

简  介  

  一个是美国外交安全局的忠诚特工、身材魁梧的执法者霍布斯(强森饰),一个是前英国军事特工精英、无法无天的恶棍肖(斯坦森饰)。在2015年的《速度与激情7》中首次对峙之后,两人不论言语还是肢体都冲突不断,一直试图打倒对方。
  然而,通过高科技进行了基因增强的无政府主义者布里克斯顿(伊德瑞斯·艾尔巴饰)控制了一种可能永远改变人类命运的不为人知的生化武器,并且还打败了一位大胆优秀又特立独行的军情六处特工(曾出演《王冠》的凡妮莎·科比饰)——她恰好是肖的妹妹,为了扳倒这个世界上唯一可能比他们更厉害的敌人,这两个不共戴天的宿敌不得不联手。
  《速度与激情:特别行动》一片在《速度与激情》系列的宇宙中推开了一扇全新的大门。从洛杉矶到伦敦,从切尔诺贝利的有毒废墟到美丽的南太平洋岛国萨摩亚,本次特别行动席卷全球。
  该片由大卫·雷奇执导(《死侍2》导演),由《速度与激情》系列故事的缔造者克里斯·摩根编剧,摩根、强森、斯坦森和海拉姆·加西亚共同担纲制片。丹尼·加西亚、凯利·麦考密克、 、史蒂文·查斯曼、伊森·史密斯和安斯利·戴维斯担任监制。


该资源信息参数
  1. Video
  2. ID                                       : 1
  3. Format                                   : AVC
  4. Format/Info                              : Advanced Video Codec
  5. Format profile                           : <a href="/cdn-cgi/l/email-protection" class="__cf_email__" data-cfemail="8bc3e2ece3cbc7bfa5ba">[email protected]</a>
  6. Format settings                          : CABAC / 4 Ref Frames
  7. Format settings, CABAC                   : Yes
  8. Format settings, Reference frames        : 4 frames
  9. Codec ID                                 : avc1
  10. Codec ID/Info                            : Advanced Video Coding
  11. Duration                                 : 2 h 9 min
  12. Bit rate                                 : 5 500 kb/s
  13. Width                                    : 1 920 pixels
  14. Height                                   : 800 pixels
  15. Display aspect ratio                     : 2.40:1
  16. Frame rate mode                          : Constant
  17. Frame rate                               : 30.000 FPS
  18. Color space                              : YUV
  19. Chroma subsampling                       : 4:2:0
  20. Bit depth                                : 8 bits
  21. Scan type                                : Progressive
  22. Bits/(Pixel*Frame)                       : 0.119
  23. Stream size                              : 4.93 GiB (95%)
  24. Title                                    : Fast.and.Furious.Presents.Hobbs.and.Shaw.2019.1080p.KORSUB.HDRip.x264.AAC2.0-STUTTERSHIT
  25. Writing library                          : x264 core 148 r2795M aaa9aa8
  26. Encoding settings                        : cabac=1 / ref=4 / deblock=1:0:0 / analyse=0x3:0x113 / me=umh / subme=9 / psy=1 / psy_rd=1.00:0.00 / mixed_ref=1 / me_range=16 / chroma_me=1 / trellis=2 / 8x8dct=1 / cqm=0 / deadzone=21,11 / fast_pskip=1 / chroma_qp_offset=-2 / threads=72 / lookahead_threads=6 / sliced_threads=0 / nr=0 / decimate=1 / interlaced=0 / bluray_compat=0 / constrained_intra=0 / bframes=3 / b_pyramid=2 / b_adapt=2 / b_bias=0 / direct=3 / weightb=1 / open_gop=0 / weightp=2 / keyint=250 / keyint_min=25 / scenecut=40 / intra_refresh=0 / rc_lookahead=50 / rc=abr / mbtree=1 / bitrate=5500 / ratetol=1.0 / qcomp=0.60 / qpmin=0 / qpmax=69 / qpstep=4 / ip_ratio=1.40 / aq=1:1.00
  27. Codec configuration box                  : avcC

  28. Audio
  29. ID                                       : 2
  30. Format                                   : AAC LC
  31. Format/Info                              : Advanced Audio Codec Low Complexity
  32. Codec ID                                 : mp4a-40-2
  33. Duration                                 : 2 h 9 min
  34. Duration_LastFrame                       : -11 ms
  35. Bit rate mode                            : Constant
  36. Bit rate                                 : 256 kb/s
  37. Channel(s)                               : 2 channels
  38. Channel layout                           : L R
  39. Sampling rate                            : 48.0 kHz
  40. Frame rate                               : 46.875 FPS (1024 SPF)
  41. Compression mode                         : Lossy
  42. Stream size                              : 237 MiB (4%)
  43. Title                                    : Fast.and.Furious.Presents.Hobbs.and.Shaw.2019.1080p.KORSUB.HDRip.x264.AAC2.0-STUTTERSHIT
  44. Language                                 : English
  45. Default                                  : Yes
  46. Alternate group                          : 1
复制代码


精彩剧照




蓝光高清网提示您 点击下方附件名称 马上开始下载



温馨提示:
本站资源优先使用迅雷下载,迅雷会员下载,速度基本可以跑满宽带
如果遇到无资源或者版权问题无法下载,推荐使用115网盘离线下载(点击查看115网盘离线下载教程


  • 该资源需要您回复以后 刷新网页进行下载操作

  • 1、Fast.and.Furious.Presents.Hobbs.and.Shaw.2019.1080p.KORSUB.HDRip.x264.AAC2.0-STU.torrent 26KB 已下载 3 次

加入蓝光高清网VIP会员  无限制下载本站所有资源---点此加入

资源下载、资源播放、字幕使用、无法下载等常见问题---点这里

回复

使用道具 举报

精彩评论4

netant1225 发表于 2019-9-21 21:03:07 | 显示全部楼层
楼主发贴辛苦了,谢谢楼主分享!

加入蓝光高清网VIP会员  无限制下载本站所有资源---点此加入

资源下载、资源播放、字幕使用、无法下载等常见问题---点这里

回复

使用道具 举报

MYadminwl*#VIP会员 年费VIP会员 发表于 2019-9-23 09:21:49 | 显示全部楼层
谢谢

加入蓝光高清网VIP会员  无限制下载本站所有资源---点此加入

资源下载、资源播放、字幕使用、无法下载等常见问题---点这里

回复

使用道具 举报

hao138 发表于 2019-9-25 11:18:47 | 显示全部楼层
值得欣赏的大片。

加入蓝光高清网VIP会员  无限制下载本站所有资源---点此加入

资源下载、资源播放、字幕使用、无法下载等常见问题---点这里

回复

使用道具 举报

淡然亦非 发表于 2019-9-25 11:25:03 | 显示全部楼层
下载快不?第一次

加入蓝光高清网VIP会员  无限制下载本站所有资源---点此加入

资源下载、资源播放、字幕使用、无法下载等常见问题---点这里

回复

使用道具 举报

懒得打字嘛,点击右侧快捷回复
高级模式
B Color Image Link Quote Code Smilies 上传

本版积分规则

关注0

粉丝0

帖子66561

发布主题
最新电影 论坛
广告位
联系我们
点击这里联系客服

服务时间:
周一到周日8:00-23:30

  • 打开微信扫一扫
    关注公众号

  • 手机QQ扫一扫
    添加客服

Archiver手机版蓝光高清网 ( 渝ICP备18006373号-2 )|网站地图

Powered by Discuz! X3.4  © 2001-2013 Comsenz Inc.