[科幻片] X战警:黑凤凰 Dark.Phoenix.2019.1080p.BluRay.REMUX.AVC.DTS-HD.MA.7.1-FGT 26.74GB

[复制链接]
蓝鸟VIP会员 永久VIP 发表于 2019-9-22 09:12:02 | 显示全部楼层 |阅读模式 打印 上一主题 下一主题

马上注册,轻松下载,海量资源,让你轻松玩转社区。

您需要 登录 才可以下载或查看,没有帐号?立即注册

x
X战警:黑凤凰 Dark.Phoenix.2019.1080p.BluRay.REMUX.AVC.DTS-HD.MA.7.1-FGT 26.74GB-1.png

译  名 X战警:黑凤凰 / X-Men: Dark Phoenix / X-Men: Supernova / X战警7 / X战警前传4 / X战警:超新星 / X战警:黑凤凰传奇 / 变种特攻:黑凤凰(港)
片  名 Dark Phoenix
年  代 2019
产  地 美国
类  别 动作 / 科幻 / 冒险
语  言 英语
上映日期 2019-06-06(中国大陆) / 2019-06-07(美国)
IMDb评分  6.0/10 from 55231 users
IMDb链接  http://www.imdb.com/title/tt6565702
豆瓣评分 6.0/10 from 114886 users
豆瓣链接 https://movie.douban.com/subject/26667010/
片  长 114分钟
导  演 西蒙·金伯格 Simon Kinberg
编  剧 西蒙·金伯格 Simon Kinberg / 约翰·拜恩 John Byrne / 克里斯·克雷蒙 Chris Claremont / 戴夫·科克勒姆 Dave Cockrum / 杰克·科比 Jack Kirby / 斯坦·李 Stan Lee
主  演 苏菲·特纳 Sophie Turner
       詹姆斯·麦卡沃伊 James McAvoy
       迈克尔·法斯宾德 Michael Fassbender
       尼古拉斯·霍尔特 Nicholas Hoult
       泰伊·谢里丹 Tye Sheridan
       杰西卡·查斯坦 Jessica Chastain
       詹妮弗·劳伦斯 Jennifer Lawrence
       柯蒂·斯密特-麦菲 Kodi Smit-McPhee
       亚历山德拉·希普 Alexandra Shipp
       埃文·彼得斯 Evan Peters
       丹尼尔·库德摩尔 Daniel Cudmore
       奥托·艾森度 Ato Essandoh
       伊万·乔尼凯特 Evan Jonigkeit
       莎莫·芳塔娜 Summer Fontana
       斯科特· 谢泼德 Scott Shepherd
       拉马尔·约翰逊 Lamar Johnson
       泰勒·艾略特·伯克 Tyler Elliot Burke
       安德鲁·斯特林 Andrew Stehlin
       朱利安·拜利 Julian Bailey
       Maurizio Terrazzano
       Josh McLaglen
       格雷格·洛 Gregg Lowe
       塞巴斯蒂安·麦克莱恩 Sebastian MacLean
       沙维尔·索特洛 Xavier Sotelo
       Karen Ivany
       奥利维耶·拉玛舒 Olivier Lamarche
       西蒙·阿兰 Simon Alain
       Alexandre Bélanger


标  签 X战警 | 漫威 | 科幻 | 美国 | 超级英雄 | 2019 | 漫画改编 | 动作

简  介  

  影片剧情围绕X战警中最受欢迎成员之一的琴·葛蕾展开,讲述她逐渐转化为黑凤凰的故事。在一次危及生命的太空营救行动中,琴被神秘的宇宙力量击中,成为最强大的变种人。此后琴·葛蕾不仅要设法掌控日益增长、极不稳定的力量,更要与自己内心的恶魔抗争,她的失控让整个X战警大家庭分崩离析,也让整个星球陷入毁灭的威胁之中。《X战警:黑凤凰》是迄今为止气氛最紧张、情感最丰富的一部《X战警》电影,是《X战警》系列20年来的集大成之作,大家非常熟悉和热爱的变种人大家庭即将面对最为强大的敌人——而她恰恰还是他们中的一员。

获奖情况  

  第5届豆瓣电影年度榜单(2018)
  最值得期待的外语电影(提名)


该资源信息参数
  1. Video
  2. ID                                       : 1
  3. Format                                   : AVC
  4. Format/Info                              : Advanced Video Codec
  5. Format profile                           : <a href="/cdn-cgi/l/email-protection" class="__cf_email__" data-cfemail="e3ab8a848ba3afd7cdd2">[email protected]</a>
  6. Format settings                          : CABAC / 4 Ref Frames
  7. Format settings, CABAC                   : Yes
  8. Format settings, Reference frames        : 4 frames
  9. Codec ID                                 : V_MPEG4/ISO/AVC
  10. Duration                                 : 1 h 53 min
  11. Bit rate mode                            : Variable
  12. Bit rate                                 : 24.6 Mb/s
  13. Maximum bit rate                         : 31.0 Mb/s
  14. Width                                    : 1 920 pixels
  15. Height                                   : 1 080 pixels
  16. Display aspect ratio                     : 16:9
  17. Frame rate mode                          : Constant
  18. Frame rate                               : 23.976 (24000/1001) FPS
  19. Color space                              : YUV
  20. Chroma subsampling                       : 4:2:0
  21. Bit depth                                : 8 bits
  22. Scan type                                : Progressive
  23. Bits/(Pixel*Frame)                       : 0.494
  24. Stream size                              : 19.6 GiB (73%)
  25. Title                                    : Dark.Phoenix.2019.1080p.BluRay.REMUX.AVC.DTS-HD.MA.7.1-FGT
  26. Language                                 : English
  27. Default                                  : No
  28. Forced                                   : No

  29. Audio #1
  30. ID                                       : 2
  31. Format                                   : DTS XLL
  32. Format/Info                              : Digital Theater Systems
  33. Commercial name                          : DTS-HD Master Audio
  34. Codec ID                                 : A_DTS
  35. Duration                                 : 1 h 53 min
  36. Bit rate mode                            : Variable
  37. Bit rate                                 : 5 074 kb/s
  38. Channel(s)                               : 8 channels
  39. Channel layout                           : C L R LFE Lb Rb Lss Rss
  40. Sampling rate                            : 48.0 kHz
  41. Frame rate                               : 93.750 FPS (512 SPF)
  42. Bit depth                                : 24 bits
  43. Compression mode                         : Lossless
  44. Stream size                              : 4.04 GiB (15%)
  45. Title                                    : Dark.Phoenix.2019.1080p.BluRay.REMUX.AVC.DTS-HD.MA.7.1-FGT
  46. Language                                 : English
  47. Default                                  : Yes
  48. Forced                                   : No

  49. Audio #2
  50. ID                                       : 3
  51. Format                                   : AC-3
  52. Format/Info                              : Audio Coding 3
  53. Commercial name                          : Dolby Digital
  54. Codec ID                                 : A_AC3
  55. Duration                                 : 1 h 53 min
  56. Bit rate mode                            : Constant
  57. Bit rate                                 : 448 kb/s
  58. Channel(s)                               : 6 channels
  59. Channel layout                           : L R C LFE Ls Rs
  60. Sampling rate                            : 48.0 kHz
  61. Frame rate                               : 31.250 FPS (1536 SPF)
  62. Bit depth                                : 16 bits
  63. Compression mode                         : Lossy
  64. Stream size                              : 365 MiB (1%)
  65. Title                                    : Dark.Phoenix.2019.1080p.BluRay.REMUX.AVC.DTS-HD.MA.7.1-FGT
  66. Language                                 : English
  67. Service kind                             : Complete Main
  68. Default                                  : No
  69. Forced                                   : No

  70. Audio #3
  71. ID                                       : 4
  72. Format                                   : DTS
  73. Format/Info                              : Digital Theater Systems
  74. Codec ID                                 : A_DTS
  75. Duration                                 : 1 h 53 min
  76. Bit rate mode                            : Constant
  77. Bit rate                                 : 768 kb/s
  78. Channel(s)                               : 6 channels
  79. Channel layout                           : C L R Ls Rs LFE
  80. Sampling rate                            : 48.0 kHz
  81. Frame rate                               : 93.750 FPS (512 SPF)
  82. Bit depth                                : 24 bits
  83. Compression mode                         : Lossy
  84. Stream size                              : 626 MiB (2%)
  85. Title                                    : Dark.Phoenix.2019.1080p.BluRay.REMUX.AVC.DTS-HD.MA.7.1-FGT
  86. Language                                 : Russian
  87. Default                                  : No
  88. Forced                                   : No

  89. Audio #4
  90. ID                                       : 5
  91. Format                                   : AC-3
  92. Format/Info                              : Audio Coding 3
  93. Commercial name                          : Dolby Digital
  94. Codec ID                                 : A_AC3
  95. Duration                                 : 1 h 53 min
  96. Bit rate mode                            : Constant
  97. Bit rate                                 : 448 kb/s
  98. Channel(s)                               : 6 channels
  99. Channel layout                           : L R C LFE Ls Rs
  100. Sampling rate                            : 48.0 kHz
  101. Frame rate                               : 31.250 FPS (1536 SPF)
  102. Bit depth                                : 16 bits
  103. Compression mode                         : Lossy
  104. Stream size                              : 365 MiB (1%)
  105. Title                                    : Dark.Phoenix.2019.1080p.BluRay.REMUX.AVC.DTS-HD.MA.7.1-FGT
  106. Language                                 : Hindi
  107. Service kind                             : Complete Main
  108. Default                                  : No
  109. Forced                                   : No

  110. Audio #5
  111. ID                                       : 6
  112. Format                                   : AC-3
  113. Format/Info                              : Audio Coding 3
  114. Commercial name                          : Dolby Digital
  115. Codec ID                                 : A_AC3
  116. Duration                                 : 1 h 53 min
  117. Bit rate mode                            : Constant
  118. Bit rate                                 : 448 kb/s
  119. Channel(s)                               : 6 channels
  120. Channel layout                           : L R C LFE Ls Rs
  121. Sampling rate                            : 48.0 kHz
  122. Frame rate                               : 31.250 FPS (1536 SPF)
  123. Bit depth                                : 16 bits
  124. Compression mode                         : Lossy
  125. Stream size                              : 365 MiB (1%)
  126. Title                                    : Dark.Phoenix.2019.1080p.BluRay.REMUX.AVC.DTS-HD.MA.7.1-FGT
  127. Language                                 : Tamil
  128. Service kind                             : Complete Main
  129. Default                                  : No
  130. Forced                                   : No

  131. Audio #6
  132. ID                                       : 7
  133. Format                                   : AC-3
  134. Format/Info                              : Audio Coding 3
  135. Commercial name                          : Dolby Digital
  136. Codec ID                                 : A_AC3
  137. Duration                                 : 1 h 53 min
  138. Bit rate mode                            : Constant
  139. Bit rate                                 : 448 kb/s
  140. Channel(s)                               : 6 channels
  141. Channel layout                           : L R C LFE Ls Rs
  142. Sampling rate                            : 48.0 kHz
  143. Frame rate                               : 31.250 FPS (1536 SPF)
  144. Bit depth                                : 16 bits
  145. Compression mode                         : Lossy
  146. Stream size                              : 365 MiB (1%)
  147. Title                                    : Dark.Phoenix.2019.1080p.BluRay.REMUX.AVC.DTS-HD.MA.7.1-FGT
  148. Language                                 : Ukrainian
  149. Service kind                             : Complete Main
  150. Default                                  : No
  151. Forced                                   : No

  152. Audio #7
  153. ID                                       : 8
  154. Format                                   : AC-3
  155. Format/Info                              : Audio Coding 3
  156. Commercial name                          : Dolby Digital
  157. Codec ID                                 : A_AC3
  158. Duration                                 : 1 h 53 min
  159. Bit rate mode                            : Constant
  160. Bit rate                                 : 224 kb/s
  161. Channel(s)                               : 2 channels
  162. Channel layout                           : L R
  163. Sampling rate                            : 48.0 kHz
  164. Frame rate                               : 31.250 FPS (1536 SPF)
  165. Bit depth                                : 16 bits
  166. Compression mode                         : Lossy
  167. Stream size                              : 183 MiB (1%)
  168. Title                                    : Dark.Phoenix.2019.1080p.BluRay.REMUX.AVC.DTS-HD.MA.7.1-FGT
  169. Language                                 : English
  170. Service kind                             : Complete Main
  171. Default                                  : No
  172. Forced                                   : No

  173. Audio #8
  174. ID                                       : 9
  175. Format                                   : AC-3
  176. Format/Info                              : Audio Coding 3
  177. Commercial name                          : Dolby Digital
  178. Codec ID                                 : A_AC3
  179. Duration                                 : 1 h 53 min
  180. Bit rate mode                            : Constant
  181. Bit rate                                 : 448 kb/s
  182. Channel(s)                               : 6 channels
  183. Channel layout                           : L R C LFE Ls Rs
  184. Sampling rate                            : 48.0 kHz
  185. Frame rate                               : 31.250 FPS (1536 SPF)
  186. Bit depth                                : 16 bits
  187. Compression mode                         : Lossy
  188. Stream size                              : 365 MiB (1%)
  189. Title                                    : Dark.Phoenix.2019.1080p.BluRay.REMUX.AVC.DTS-HD.MA.7.1-FGT
  190. Language                                 : Telugu
  191. Service kind                             : Complete Main
  192. Default                                  : No
  193. Forced                                   : No

  194. Audio #9
  195. ID                                       : 10
  196. Format                                   : AC-3
  197. Format/Info                              : Audio Coding 3
  198. Commercial name                          : Dolby Digital
  199. Codec ID                                 : A_AC3
  200. Duration                                 : 1 h 53 min
  201. Bit rate mode                            : Constant
  202. Bit rate                                 : 448 kb/s
  203. Channel(s)                               : 6 channels
  204. Channel layout                           : L R C LFE Ls Rs
  205. Sampling rate                            : 48.0 kHz
  206. Frame rate                               : 31.250 FPS (1536 SPF)
  207. Bit depth                                : 16 bits
  208. Compression mode                         : Lossy
  209. Stream size                              : 365 MiB (1%)
  210. Title                                    : Dark.Phoenix.2019.1080p.BluRay.REMUX.AVC.DTS-HD.MA.7.1-FGT
  211. Language                                 : Urdu
  212. Service kind                             : Complete Main
  213. Default                                  : No
  214. Forced                                   : No

  215. Text #1
  216. ID                                       : 11
  217. Format                                   : UTF-8
  218. Codec ID                                 : S_TEXT/UTF8
  219. Codec ID/Info                            : UTF-8 Plain Text
  220. Duration                                 : 31 min 20 s
  221. Bit rate                                 : 0 b/s
  222. Count of elements                        : 4
  223. Stream size                              : 168 Bytes (0%)
  224. Title                                    : English-FORCED-SRT
  225. Language                                 : English
  226. Default                                  : Yes
  227. Forced                                   : No

  228. Text #2
  229. ID                                       : 12
  230. Format                                   : UTF-8
  231. Codec ID                                 : S_TEXT/UTF8
  232. Codec ID/Info                            : UTF-8 Plain Text
  233. Duration                                 : 1 h 43 min
  234. Bit rate                                 : 41 b/s
  235. Count of elements                        : 1134
  236. Stream size                              : 31.6 KiB (0%)
  237. Title                                    : English-SRT
  238. Language                                 : English
  239. Default                                  : No
  240. Forced                                   : No

  241. Text #3
  242. ID                                       : 13
  243. Format                                   : UTF-8
  244. Codec ID                                 : S_TEXT/UTF8
  245. Codec ID/Info                            : UTF-8 Plain Text
  246. Duration                                 : 1 h 44 min
  247. Bit rate                                 : 46 b/s
  248. Count of elements                        : 1365
  249. Stream size                              : 35.9 KiB (0%)
  250. Title                                    : English-SDH-SRT
  251. Language                                 : English
  252. Default                                  : No
  253. Forced                                   : No

  254. Text #4
  255. ID                                       : 14
  256. Format                                   : PGS
  257. Muxing mode                              : zlib
  258. Codec ID                                 : S_HDMV/PGS
  259. Codec ID/Info                            : Picture based subtitle format used on BDs/HD-DVDs
  260. Duration                                 : 1 h 53 min
  261. Bit rate                                 : 27.8 kb/s
  262. Count of elements                        : 2830
  263. Stream size                              : 22.6 MiB (0%)
  264. Title                                    : English-PGS
  265. Language                                 : English
  266. Default                                  : No
  267. Forced                                   : No

  268. Text #5
  269. ID                                       : 15
  270. Format                                   : PGS
  271. Muxing mode                              : zlib
  272. Codec ID                                 : S_HDMV/PGS
  273. Codec ID/Info                            : Picture based subtitle format used on BDs/HD-DVDs
  274. Duration                                 : 1 h 52 min
  275. Bit rate                                 : 19.3 kb/s
  276. Count of elements                        : 1594
  277. Stream size                              : 15.6 MiB (0%)
  278. Title                                    : Danish-PGS
  279. Language                                 : Danish
  280. Default                                  : No
  281. Forced                                   : No

  282. Text #6
  283. ID                                       : 16
  284. Format                                   : PGS
  285. Muxing mode                              : zlib
  286. Codec ID                                 : S_HDMV/PGS
  287. Codec ID/Info                            : Picture based subtitle format used on BDs/HD-DVDs
  288. Duration                                 : 1 h 52 min
  289. Bit rate                                 : 20.5 kb/s
  290. Count of elements                        : 2202
  291. Stream size                              : 16.6 MiB (0%)
  292. Title                                    : Norwegian-PGS
  293. Language                                 : Norwegian
  294. Default                                  : No
  295. Forced                                   : No

  296. Text #7
  297. ID                                       : 17
  298. Format                                   : PGS
  299. Muxing mode                              : zlib
  300. Codec ID                                 : S_HDMV/PGS
  301. Codec ID/Info                            : Picture based subtitle format used on BDs/HD-DVDs
  302. Duration                                 : 1 h 52 min
  303. Bit rate                                 : 21.5 kb/s
  304. Count of elements                        : 2200
  305. Stream size                              : 17.3 MiB (0%)
  306. Title                                    : Russian-PGS
  307. Language                                 : Russian
  308. Default                                  : No
  309. Forced                                   : No

  310. Text #8
  311. ID                                       : 18
  312. Format                                   : PGS
  313. Muxing mode                              : zlib
  314. Codec ID                                 : S_HDMV/PGS
  315. Codec ID/Info                            : Picture based subtitle format used on BDs/HD-DVDs
  316. Duration                                 : 1 h 46 min
  317. Bit rate                                 : 237 b/s
  318. Count of elements                        : 20
  319. Stream size                              : 185 KiB (0%)
  320. Title                                    : Russian-FORCED-PGS
  321. Language                                 : Russian
  322. Default                                  : No
  323. Forced                                   : No

  324. Text #9
  325. ID                                       : 19
  326. Format                                   : PGS
  327. Muxing mode                              : zlib
  328. Codec ID                                 : S_HDMV/PGS
  329. Codec ID/Info                            : Picture based subtitle format used on BDs/HD-DVDs
  330. Duration                                 : 1 h 52 min
  331. Bit rate                                 : 21.1 kb/s
  332. Count of elements                        : 2202
  333. Stream size                              : 17.1 MiB (0%)
  334. Title                                    : Swedish-PGS
  335. Language                                 : Swedish
  336. Default                                  : No
  337. Forced                                   : No

  338. Text #10
  339. ID                                       : 20
  340. Format                                   : PGS
  341. Muxing mode                              : zlib
  342. Codec ID                                 : S_HDMV/PGS
  343. Codec ID/Info                            : Picture based subtitle format used on BDs/HD-DVDs
  344. Duration                                 : 1 h 52 min
  345. Bit rate                                 : 22.0 kb/s
  346. Count of elements                        : 2198
  347. Stream size                              : 17.8 MiB (0%)
  348. Title                                    : Estonian-PGS
  349. Language                                 : Estonian
  350. Default                                  : No
  351. Forced                                   : No

  352. Text #11
  353. ID                                       : 21
  354. Format                                   : PGS
  355. Muxing mode                              : zlib
  356. Codec ID                                 : S_HDMV/PGS
  357. Codec ID/Info                            : Picture based subtitle format used on BDs/HD-DVDs
  358. Duration                                 : 1 h 52 min
  359. Bit rate                                 : 21.6 kb/s
  360. Count of elements                        : 2204
  361. Stream size                              : 17.4 MiB (0%)
  362. Title                                    : Latvian-PGS
  363. Language                                 : Latvian
  364. Default                                  : No
  365. Forced                                   : No

  366. Text #12
  367. ID                                       : 22
  368. Format                                   : PGS
  369. Muxing mode                              : zlib
  370. Codec ID                                 : S_HDMV/PGS
  371. Codec ID/Info                            : Picture based subtitle format used on BDs/HD-DVDs
  372. Duration                                 : 1 h 52 min
  373. Bit rate                                 : 20.4 kb/s
  374. Count of elements                        : 2200
  375. Stream size                              : 16.5 MiB (0%)
  376. Title                                    : Lithuanian-PGS
  377. Language                                 : Lithuanian
  378. Default                                  : No
  379. Forced                                   : No

  380. Text #13
  381. ID                                       : 23
  382. Format                                   : PGS
  383. Muxing mode                              : zlib
  384. Codec ID                                 : S_HDMV/PGS
  385. Codec ID/Info                            : Picture based subtitle format used on BDs/HD-DVDs
  386. Duration                                 : 1 h 52 min
  387. Bit rate                                 : 28.8 kb/s
  388. Count of elements                        : 2198
  389. Stream size                              : 23.2 MiB (0%)
  390. Title                                    : Tamil-PGS
  391. Language                                 : Tamil
  392. Default                                  : No
  393. Forced                                   : No

  394. Text #14
  395. ID                                       : 24
  396. Format                                   : PGS
  397. Muxing mode                              : zlib
  398. Codec ID                                 : S_HDMV/PGS
  399. Codec ID/Info                            : Picture based subtitle format used on BDs/HD-DVDs
  400. Duration                                 : 1 h 26 min
  401. Bit rate                                 : 323 b/s
  402. Count of elements                        : 18
  403. Stream size                              : 205 KiB (0%)
  404. Title                                    : Tamil-FORCED-PGS
  405. Language                                 : Tamil
  406. Default                                  : No
  407. Forced                                   : No

  408. Text #15
  409. ID                                       : 25
  410. Format                                   : PGS
  411. Muxing mode                              : zlib
  412. Codec ID                                 : S_HDMV/PGS
  413. Codec ID/Info                            : Picture based subtitle format used on BDs/HD-DVDs
  414. Duration                                 : 1 h 52 min
  415. Bit rate                                 : 21.9 kb/s
  416. Count of elements                        : 2198
  417. Stream size                              : 17.7 MiB (0%)
  418. Title                                    : Telugu-PGS
  419. Language                                 : Telugu
  420. Default                                  : No
  421. Forced                                   : No

  422. Text #16
  423. ID                                       : 26
  424. Format                                   : PGS
  425. Muxing mode                              : zlib
  426. Codec ID                                 : S_HDMV/PGS
  427. Codec ID/Info                            : Picture based subtitle format used on BDs/HD-DVDs
  428. Duration                                 : 1 h 26 min
  429. Bit rate                                 : 244 b/s
  430. Count of elements                        : 18
  431. Stream size                              : 155 KiB (0%)
  432. Title                                    : Telugu-FORCED-PGS
  433. Language                                 : Telugu
  434. Default                                  : No
  435. Forced                                   : No

  436. Text #17
  437. ID                                       : 27
  438. Format                                   : PGS
  439. Muxing mode                              : zlib
  440. Codec ID                                 : S_HDMV/PGS
  441. Codec ID/Info                            : Picture based subtitle format used on BDs/HD-DVDs
  442. Duration                                 : 1 h 53 min
  443. Bit rate                                 : 64.3 kb/s
  444. Count of elements                        : 4348
  445. Stream size                              : 52.3 MiB (0%)
  446. Title                                    : Danish-COMMENTARY-PGS
  447. Language                                 : Danish
  448. Default                                  : No
  449. Forced                                   : No

  450. Text #18
  451. ID                                       : 28
  452. Format                                   : PGS
  453. Muxing mode                              : zlib
  454. Codec ID                                 : S_HDMV/PGS
  455. Codec ID/Info                            : Picture based subtitle format used on BDs/HD-DVDs
  456. Duration                                 : 1 h 53 min
  457. Bit rate                                 : 65.4 kb/s
  458. Count of elements                        : 4348
  459. Stream size                              : 53.2 MiB (0%)
  460. Title                                    : Norwegian-COMMENTARY-PGS
  461. Language                                 : Norwegian
  462. Default                                  : No
  463. Forced                                   : No

  464. Text #19
  465. ID                                       : 29
  466. Format                                   : PGS
  467. Muxing mode                              : zlib
  468. Codec ID                                 : S_HDMV/PGS
  469. Codec ID/Info                            : Picture based subtitle format used on BDs/HD-DVDs
  470. Duration                                 : 1 h 53 min
  471. Bit rate                                 : 62.4 kb/s
  472. Count of elements                        : 4334
  473. Stream size                              : 50.7 MiB (0%)
  474. Title                                    : Russian-COMMENTARY-PGS
  475. Language                                 : Russian
  476. Default                                  : No
  477. Forced                                   : No

  478. Text #20
  479. ID                                       : 30
  480. Format                                   : PGS
  481. Muxing mode                              : zlib
  482. Codec ID                                 : S_HDMV/PGS
  483. Codec ID/Info                            : Picture based subtitle format used on BDs/HD-DVDs
  484. Duration                                 : 1 h 53 min
  485. Bit rate                                 : 76.4 kb/s
  486. Count of elements                        : 4348
  487. Stream size                              : 62.2 MiB (0%)
  488. Title                                    : Swedish-COMMENTARY-PGS
  489. Language                                 : Swedish
  490. Default                                  : No
  491. Forced                                   : No

  492. Text #21
  493. ID                                       : 31
  494. Format                                   : PGS
  495. Muxing mode                              : zlib
  496. Codec ID                                 : S_HDMV/PGS
  497. Codec ID/Info                            : Picture based subtitle format used on BDs/HD-DVDs
  498. Duration                                 : 1 h 52 min
  499. Bit rate                                 : 20.4 kb/s
  500. Count of elements                        : 2198
  501. Stream size                              : 16.5 MiB (0%)
  502. Title                                    : Finnish-COMMENTARY-PGS
  503. Language                                 : Finnish
  504. Default                                  : No
  505. Forced                                   : No

  506. Text #22
  507. ID                                       : 32
  508. Format                                   : PGS
  509. Muxing mode                              : zlib
  510. Codec ID                                 : S_HDMV/PGS
  511. Codec ID/Info                            : Picture based subtitle format used on BDs/HD-DVDs
  512. Duration                                 : 1 h 53 min
  513. Bit rate                                 : 75.5 kb/s
  514. Count of elements                        : 4364
  515. Stream size                              : 61.4 MiB (0%)
  516. Title                                    : English-COMMENTARY-PGS
  517. Language                                 : English
  518. Default                                  : No
  519. Forced                                   : No

  520. Text #23
  521. ID                                       : 33
  522. Format                                   : PGS
  523. Muxing mode                              : zlib
  524. Codec ID                                 : S_HDMV/PGS
  525. Codec ID/Info                            : Picture based subtitle format used on BDs/HD-DVDs
  526. Duration                                 : 1 h 52 min
  527. Bit rate                                 : 18.3 kb/s
  528. Count of elements                        : 2200
  529. Stream size                              : 14.8 MiB (0%)
  530. Title                                    : Hindi-PGS
  531. Language                                 : Hindi
  532. Default                                  : No
  533. Forced                                   : No

  534. Text #24
  535. ID                                       : 34
  536. Format                                   : PGS
  537. Muxing mode                              : zlib
  538. Codec ID                                 : S_HDMV/PGS
  539. Codec ID/Info                            : Picture based subtitle format used on BDs/HD-DVDs
  540. Duration                                 : 1 h 26 min
  541. Bit rate                                 : 205 b/s
  542. Count of elements                        : 18
  543. Stream size                              : 130 KiB (0%)
  544. Title                                    : Hindi-FORCED-PGS
  545. Language                                 : Hindi
  546. Default                                  : No
  547. Forced                                   : No

  548. Text #25
  549. ID                                       : 35
  550. Format                                   : PGS
  551. Muxing mode                              : zlib
  552. Codec ID                                 : S_HDMV/PGS
  553. Codec ID/Info                            : Picture based subtitle format used on BDs/HD-DVDs
  554. Duration                                 : 1 h 52 min
  555. Bit rate                                 : 21.7 kb/s
  556. Count of elements                        : 2206
  557. Stream size                              : 17.5 MiB (0%)
  558. Title                                    : Ukranian-PGS
  559. Language                                 : Ukrainian
  560. Default                                  : No
  561. Forced                                   : No

  562. Text #26
  563. ID                                       : 36
  564. Format                                   : PGS
  565. Muxing mode                              : zlib
  566. Codec ID                                 : S_HDMV/PGS
  567. Codec ID/Info                            : Picture based subtitle format used on BDs/HD-DVDs
  568. Duration                                 : 1 h 52 min
  569. Bit rate                                 : 181 b/s
  570. Count of elements                        : 20
  571. Stream size                              : 150 KiB (0%)
  572. Title                                    : Ukranian-FORCED-PGS
  573. Language                                 : Ukrainian
  574. Default                                  : No
  575. Forced                                   : No

  576. Text #27
  577. ID                                       : 37
  578. Format                                   : PGS
  579. Muxing mode                              : zlib
  580. Codec ID                                 : S_HDMV/PGS
  581. Codec ID/Info                            : Picture based subtitle format used on BDs/HD-DVDs
  582. Duration                                 : 1 h 53 min
  583. Bit rate                                 : 62.5 kb/s
  584. Count of elements                        : 4342
  585. Stream size                              : 50.8 MiB (0%)
  586. Title                                    : Finnish-COMMENTARY-PGS
  587. Language                                 : Finnish
  588. Default                                  : No
  589. Forced                                   : No

  590. Text #28
  591. ID                                       : 38
  592. Format                                   : PGS
  593. Muxing mode                              : zlib
  594. Codec ID                                 : S_HDMV/PGS
  595. Codec ID/Info                            : Picture based subtitle format used on BDs/HD-DVDs
  596. Duration                                 : 31 min 20 s
  597. Bit rate                                 : 268 b/s
  598. Count of elements                        : 8
  599. Stream size                              : 61.6 KiB (0%)
  600. Title                                    : English-FORCED-PGS
  601. Language                                 : English
  602. Default                                  : No
  603. Forced                                   : No

  604. Text #29
  605. ID                                       : 39
  606. Format                                   : PGS
  607. Muxing mode                              : zlib
  608. Codec ID                                 : S_HDMV/PGS
  609. Codec ID/Info                            : Picture based subtitle format used on BDs/HD-DVDs
  610. Duration                                 : 31 min 20 s
  611. Bit rate                                 : 268 b/s
  612. Count of elements                        : 8
  613. Stream size                              : 61.6 KiB (0%)
  614. Title                                    : English-FORCED-PGS
  615. Language                                 : English
  616. Default                                  : No
  617. Forced                                   : No

  618. Menu
  619. 00:00:00.000                             : en:Chapter 01
  620. 00:03:28.875                             : en:Chapter 02
  621. 00:07:34.620                             : en:Chapter 03
  622. 00:11:42.201                             : en:Chapter 04
  623. 00:15:44.109                             : en:Chapter 05
  624. 00:18:37.407                             : en:Chapter 06
  625. 00:25:24.481                             : en:Chapter 07
  626. 00:31:40.356                             : en:Chapter 08
  627. 00:34:19.307                             : en:Chapter 09
  628. 00:40:07.446                             : en:Chapter 10
  629. 00:44:36.090                             : en:Chapter 11
  630. 00:49:07.778                             : en:Chapter 12
  631. 00:55:38.168                             : en:Chapter 13
  632. 00:58:57.408                             : en:Chapter 14
  633. 01:02:57.190                             : en:Chapter 15
  634. 01:10:40.110                             : en:Chapter 16
  635. 01:13:42.418                             : en:Chapter 17
  636. 01:19:33.477                             : en:Chapter 18
  637. 01:22:35.700                             : en:Chapter 19
  638. 01:25:49.060                             : en:Chapter 20
  639. 01:30:38.349                             : en:Chapter 21
  640. 01:32:48.187                             : en:Chapter 22
  641. 01:37:59.623                             : en:Chapter 23
  642. 01:45:01.044                             : en:Chapter 24
复制代码


精彩剧照

X战警:黑凤凰 Dark.Phoenix.2019.1080p.BluRay.REMUX.AVC.DTS-HD.MA.7.1-FGT 26.74GB-2.png X战警:黑凤凰 Dark.Phoenix.2019.1080p.BluRay.REMUX.AVC.DTS-HD.MA.7.1-FGT 26.74GB-3.png X战警:黑凤凰 Dark.Phoenix.2019.1080p.BluRay.REMUX.AVC.DTS-HD.MA.7.1-FGT 26.74GB-4.png


蓝光高清网提示您 点击下方附件名称 马上开始下载

Dark.Phoenix.2019.1080p.BluRay.REMUX.AVC.DTS-HD.MA.7.1-FGT.torrent (67.39 KB, 下载次数: 4)

加入蓝光高清网VIP会员  无限制下载本站所有资源---点此加入

资源下载、资源播放、字幕使用、无法下载等常见问题---点这里

回复

使用道具 举报

精彩评论2

cssuyd 发表于 2019-9-22 19:00:28 | 显示全部楼层
没人下?

加入蓝光高清网VIP会员  无限制下载本站所有资源---点此加入

资源下载、资源播放、字幕使用、无法下载等常见问题---点这里

回复

使用道具 举报

cwj123456VIP会员 发表于 2019-10-10 21:47:33 | 显示全部楼层
可以下载了吗

加入蓝光高清网VIP会员  无限制下载本站所有资源---点此加入

资源下载、资源播放、字幕使用、无法下载等常见问题---点这里

回复

使用道具 举报

懒得打字嘛,点击右侧快捷回复
您需要登录后才可以回帖 登录 | 立即注册

本版积分规则

关注0

粉丝0

帖子66561

发布主题
最新电影 论坛
广告位
联系我们
点击这里联系客服

服务时间:
周一到周日8:00-23:30

  • 打开微信扫一扫
    关注公众号

  • 手机QQ扫一扫
    添加客服

Archiver手机版蓝光高清网 ( 渝ICP备18006373号-2 )|网站地图

Powered by Discuz! X3.4  © 2001-2013 Comsenz Inc.