[科幻片] 尼可曼斯 Nekrotronic.2018.1080p.BluRay.REMUX.AVC.DTS-HD.MA5.1-FGT 21.68GB

[复制链接]
蓝鸟VIP会员 永久VIP 发表于 2019-9-22 09:56:29 | 显示全部楼层 |阅读模式 打印 上一主题 下一主题

马上注册,轻松下载,海量资源,让你轻松玩转社区。

您需要 登录 才可以下载或查看,没有帐号?立即注册

x
尼可曼斯 Nekrotronic.2018.1080p.BluRay.REMUX.AVC.DTS-HD.MA5.1-FGT 21.68GB-1.png

译  名 尼可曼斯
片  名 Nekrotronic
年  代 2019
产  地 澳大利亚
类  别 科幻 / 恐怖
上映日期 2018-09-07(多伦多电影节)
IMDb评分  5.6/10 from 158 users
IMDb链接  http://www.imdb.com/title/tt7453418
豆瓣评分 0/10 from 0 users
豆瓣链接 https://movie.douban.com/subject/27158530/
导  演 Kiah Roache-Turner / Tristan Roache-Turner
编  剧 Kiah Roache-Turner / Tristan Roache-Turner
主  演 莫妮卡·贝鲁奇 Monica Bellucci
       本·奥图尔 Ben O"Toole
       泰丝·哈乌布里奇 Tess Haubrich


标  签 科幻 | 恐怖 | 澳大利亚 | 莫妮卡·贝鲁奇 | 莫妮卡 | 澳大利亚电影 | 2019

简  介  

  莫妮卡·贝鲁奇加盟科幻恐怖片[尼可曼斯](Nekromancer,暂译)。影片由澳大利亚导演凯·瑞奇-特纳及凯兄弟两人执导。影片卡司还包括本·奥图尔([底特律])、泰丝·哈乌布里奇([机器之血])。该片由eOne联合Screen Australia、 Create NSW投资制作。影片今年于悉尼开拍,剧情未知。


该资源信息参数
  1. Video
  2. ID                                       : 1
  3. Format                                   : AVC
  4. Format/Info                              : Advanced Video Codec
  5. Format profile                           : <a href="/cdn-cgi/l/email-protection" class="__cf_email__" data-cfemail="92dafbf5fad2dea6bca3">[email protected]</a>
  6. Format settings                          : CABAC / 4 Ref Frames
  7. Format settings, CABAC                   : Yes
  8. Format settings, Reference frames        : 4 frames
  9. Format settings, GOP                     : M=3, N=24
  10. Codec ID                                 : V_MPEG4/ISO/AVC
  11. Duration                                 : 1 h 36 min
  12. Bit rate mode                            : Variable
  13. Bit rate                                 : 30.0 Mb/s
  14. Maximum bit rate                         : 35.0 Mb/s
  15. Width                                    : 1 920 pixels
  16. Height                                   : 1 080 pixels
  17. Display aspect ratio                     : 16:9
  18. Frame rate mode                          : Constant
  19. Frame rate                               : 23.976 (24000/1001) FPS
  20. Standard                                 : NTSC
  21. Color space                              : YUV
  22. Chroma subsampling                       : 4:2:0
  23. Bit depth                                : 8 bits
  24. Scan type                                : Progressive
  25. Bits/(Pixel*Frame)                       : 0.603
  26. Stream size                              : 20.3 GiB (93%)
  27. Title                                    : Nekrotronic.2018.1080p.BluRay.REMUX.AVC.DTS-HD.MA5.1-FGT
  28. Language                                 : English
  29. Default                                  : No
  30. Forced                                   : No
  31. Color range                              : Limited
  32. Color primaries                          : BT.709
  33. Transfer characteristics                 : BT.709
  34. Matrix coefficients                      : BT.709

  35. Audio
  36. ID                                       : 2
  37. Format                                   : DTS XLL
  38. Format/Info                              : Digital Theater Systems
  39. Commercial name                          : DTS-HD Master Audio
  40. Codec ID                                 : A_DTS
  41. Duration                                 : 1 h 36 min
  42. Bit rate mode                            : Variable
  43. Bit rate                                 : 2 078 kb/s
  44. Channel(s)                               : 6 channels
  45. Channel layout                           : C L R Ls Rs LFE
  46. Sampling rate                            : 48.0 kHz
  47. Frame rate                               : 93.750 FPS (512 SPF)
  48. Bit depth                                : 16 bits
  49. Compression mode                         : Lossless
  50. Stream size                              : 1.40 GiB (6%)
  51. Title                                    : Nekrotronic.2018.1080p.BluRay.REMUX.AVC.DTS-HD.MA5.1-FGT
  52. Language                                 : English
  53. Default                                  : Yes
  54. Forced                                   : No

  55. Text
  56. ID                                       : 3
  57. Format                                   : PGS
  58. Muxing mode                              : zlib
  59. Codec ID                                 : S_HDMV/PGS
  60. Codec ID/Info                            : Picture based subtitle format used on BDs/HD-DVDs
  61. Duration                                 : 1 h 30 min
  62. Bit rate                                 : 38.5 kb/s
  63. Count of elements                        : 2646
  64. Stream size                              : 25.0 MiB (0%)
  65. Title                                    : English-PGS
  66. Language                                 : English
  67. Default                                  : Yes
  68. Forced                                   : No

  69. Menu
  70. 00:00:00.000                             : en:Chapter 01
  71. 00:05:02.385                             : en:Chapter 02
  72. 00:09:52.592                             : en:Chapter 03
  73. 00:17:47.441                             : en:Chapter 04
  74. 00:25:41.331                             : en:Chapter 05
  75. 00:33:46.315                             : en:Chapter 06
  76. 00:38:33.060                             : en:Chapter 07
  77. 00:42:50.276                             : en:Chapter 08
  78. 00:47:39.606                             : en:Chapter 09
  79. 00:55:36.708                             : en:Chapter 10
  80. 00:59:54.757                             : en:Chapter 11
  81. 01:03:45.029                             : en:Chapter 12
  82. 01:11:30.035                             : en:Chapter 13
  83. 01:17:15.547                             : en:Chapter 14
  84. 01:22:24.689                             : en:Chapter 15
  85. 01:31:23.644                             : en:Chapter 16
复制代码


精彩剧照

尼可曼斯 Nekrotronic.2018.1080p.BluRay.REMUX.AVC.DTS-HD.MA5.1-FGT 21.68GB-2.png 尼可曼斯 Nekrotronic.2018.1080p.BluRay.REMUX.AVC.DTS-HD.MA5.1-FGT 21.68GB-3.png 尼可曼斯 Nekrotronic.2018.1080p.BluRay.REMUX.AVC.DTS-HD.MA5.1-FGT 21.68GB-4.png


蓝光高清网提示您 点击下方附件名称 马上开始下载

Nekrotronic.2018.1080p.BluRay.REMUX.AVC.DTS-HD.MA5.1-FGT.torrent (54.75 KB, 下载次数: 3)

加入蓝光高清网VIP会员  无限制下载本站所有资源---点此加入

资源下载、资源播放、字幕使用、无法下载等常见问题---点这里

回复

使用道具 举报

精彩评论2

zht7310 发表于 2019-9-23 09:31:01 | 显示全部楼层
是大事发生的反腐

加入蓝光高清网VIP会员  无限制下载本站所有资源---点此加入

资源下载、资源播放、字幕使用、无法下载等常见问题---点这里

回复

使用道具 举报

退色的风 发表于 2019-10-7 19:58:08 | 显示全部楼层
谢谢分享!!!!

加入蓝光高清网VIP会员  无限制下载本站所有资源---点此加入

资源下载、资源播放、字幕使用、无法下载等常见问题---点这里

回复

使用道具 举报

懒得打字嘛,点击右侧快捷回复
您需要登录后才可以回帖 登录 | 立即注册

本版积分规则

关注0

粉丝0

帖子66561

发布主题
最新电影 论坛
广告位
联系我们
点击这里联系客服

服务时间:
周一到周日8:00-23:30

  • 打开微信扫一扫
    关注公众号

  • 手机QQ扫一扫
    添加客服

Archiver手机版蓝光高清网 ( 渝ICP备18006373号-2 )|网站地图

Powered by Discuz! X3.4  © 2001-2013 Comsenz Inc.