[科幻] 蜘蛛侠:英雄远征/新蜘蛛侠2 Spider-Man.Far.from.Home.2019.1080p.BluRay.x264.TrueHD.7.1.Atmos-FGT 12.32GB

[复制链接]
蓝鸟VIP会员 永久VIP 发表于 2019-9-22 10:17:19 | 显示全部楼层 |阅读模式 打印 上一主题 下一主题

马上注册,轻松下载,海量资源,让你轻松玩转社区。

您需要 登录 才可以下载或查看,没有帐号?立即注册

x

蜘蛛侠:英雄远征/新蜘蛛侠2 Spider-Man.Far.from.Home.2019.1080p.BluRay.x264.TrueHD.7.1.Atmos-FGT 12.32 ...

蜘蛛侠:英雄远征/新蜘蛛侠2 Spider-Man.Far.from.Home.2019.1080p.BluRay.x264.TrueHD.7.1.Atmos-FGT 12.32 ...


译  名 蜘蛛侠:英雄远征 / 新蜘蛛侠2 / 蜘蛛侠2 / 蜘蛛侠2:离家出走(豆友译名) / 蜘蛛侠2:英雄离乡 / 蜘蛛侠2:远离家乡 / 蜘蛛侠:决战千里(港) / 蜘蛛侠:归来2 / 蜘蛛侠:离家日(台) / 蜘蛛侠:英雄归来2 / 蜘蛛侠:远离故乡
片  名 Spider-Man: Far from Home
年  代 2019
产  地 美国
类  别 动作 / 科幻 / 冒险
语  言 英语
上映日期 2019-06-28(中国大陆) / 2019-07-02(美国)
IMDb评分  7.9/10 from 161425 users
IMDb链接  http://www.imdb.com/title/tt6320628
豆瓣评分 7.9/10 from 346059 users
豆瓣链接 https://movie.douban.com/subject/26931786/
片  长 127分钟
导  演 乔·沃茨 Jon Watts
编  剧 克里斯·麦克纳 Chris McKenna / 埃里克·萨默斯 Erik Sommers / 史蒂夫·迪特寇 Steve Ditko / 斯坦·李 Stan Lee
主  演 汤姆·赫兰德 Tom Holland
       赞达亚 Zendaya
       杰克·吉伦哈尔 Jake Gyllenhaal
       寇碧·史莫德斯 Cobie Smulders
       塞缪尔·杰克逊 Samuel L. Jackson
       乔恩·费儒 Jon Favreau
       玛丽莎·托梅 Marisa Tomei
       雅各布·巴特朗 Jacob Batalon
       安格瑞·赖斯 Angourie Rice
       马丁·斯塔尔 Martin Starr
       瑞米·海依 Remy Hii
       纽曼·阿卡 Numan Acar
       托尼·雷沃罗利 Tony Revolori
       J·B·斯穆夫 J.B. Smoove
       赫米基·马德拉 Hemky Madera
       戴维娜·西塔拉姆 Davina Sitaram
       约瑟夫·朗 Joseph Long
       露丝·霍洛克斯 Ruth Horrocks
       哈廷·帕特尔 Hiten Patel
       杰罗恩·凡·康宁斯伯格 Jeroen van Koningsbrugge
       Leonys Delossantos
       查利·蕾娅·埃斯奎尔 Charlie Rhea Esquér
       费斯·洛根 Faith Logan
       J·K·西蒙斯 J.K. Simmons
       小罗伯特·唐尼 Robert Downey Jr.


标  签 漫威 | 超级英雄 | 美国 | 科幻 | 2019 | 成长 | 动作 | 漫画改编

简  介  

  在复仇者联盟众英雄的努力下,于灭霸无限手套事件中化作为灰烬的人们,重新回到了人世间,曾经消失的蜘蛛侠 彼得帕克 也回归到了普通的生活之中,数月后,蜘蛛侠彼得帕克所在的学校举行了欧洲旅游,帕克也在其中, 在欧州威尼斯旅行时,一个巨大无比的水怪袭击了威尼斯,不敌敌人的蜘蛛侠幸得一位自称神秘客的男子搭救才击退敌人,之后 神盾局局长找上正在旅游的彼得帕克并要求其加入神盾局,并安排神秘客协助帕克,神秘客自称来自其他宇宙,并告知一群名为元素众的邪恶势力已经入侵这个宇宙了,为了守护来之不易的和平,蜘蛛侠决定与神秘客联手,然而在神秘客那头罩之中,似乎隐藏着什么不为人知的真相……

获奖情况  

  第5届豆瓣电影年度榜单(2018)
  最值得期待的外语电影(提名)


该资源信息参数
  1. Video
  2. ID                                       : 1
  3. Format                                   : AVC
  4. Format/Info                              : Advanced Video Codec
  5. Format profile                           : High@L4
  6. Format settings                          : CABAC / 5 Ref Frames
  7. Format settings, CABAC                   : Yes
  8. Format settings, Reference frames        : 5 frames
  9. Codec ID                                 : V_MPEG4/ISO/AVC
  10. Duration                                 : 2 h 9 min
  11. Bit rate                                 : 9 376 kb/s
  12. Width                                    : 1 920 pixels
  13. Height                                   : 808 pixels
  14. Display aspect ratio                     : 2.40:1
  15. Frame rate mode                          : Constant
  16. Frame rate                               : 23.976 (24000/1001) FPS
  17. Color space                              : YUV
  18. Chroma subsampling                       : 4:2:0
  19. Bit depth                                : 8 bits
  20. Scan type                                : Progressive
  21. Bits/(Pixel*Frame)                       : 0.252
  22. Stream size                              : 8.47 GiB (69%)
  23. Title                                    : Spider-Man.Far.from.Home.2019.1080p.BluRay.x264.TrueHD.7.1.Atmos-FGT
  24. Writing library                          : x264 core 158 r2984 3759fcb
  25. Encoding settings                        : cabac=1 / ref=5 / deblock=1:-3:-3 / analyse=0x3:0x133 / me=umh / subme=8 / psy=1 / psy_rd=1.00:0.00 / mixed_ref=1 / me_range=16 / chroma_me=1 / trellis=1 / 8x8dct=1 / cqm=0 / deadzone=21,11 / fast_pskip=0 / chroma_qp_offset=-2 / threads=25 / lookahead_threads=4 / sliced_threads=0 / nr=0 / decimate=1 / interlaced=0 / bluray_compat=0 / constrained_intra=0 / bframes=3 / b_pyramid=2 / b_adapt=1 / b_bias=0 / direct=3 / weightb=1 / open_gop=0 / weightp=2 / keyint=250 / keyint_min=23 / scenecut=40 / intra_refresh=0 / rc_lookahead=50 / rc=2pass / mbtree=1 / bitrate=9376 / ratetol=1.0 / qcomp=0.60 / qpmin=0 / qpmax=69 / qpstep=4 / cplxblur=20.0 / qblur=0.5 / vbv_maxrate=62500 / vbv_bufsize=78125 / nal_hrd=none / filler=0 / ip_ratio=1.40 / aq=1:1.00
  26. Language                                 : English
  27. Default                                  : Yes
  28. Forced                                   : No

  29. Audio #1
  30. ID                                       : 2
  31. Format                                   : MLP FBA 16-ch
  32. Format/Info                              : Meridian Lossless Packing FBA with 16-channel presentation
  33. Commercial name                          : Dolby TrueHD with Dolby Atmos
  34. Codec ID                                 : A_TRUEHD
  35. Duration                                 : 2 h 9 min
  36. Bit rate mode                            : Variable
  37. Bit rate                                 : 3 077 kb/s
  38. Maximum bit rate                         : 5 397 kb/s
  39. Channel(s)                               : 8 channels
  40. Channel layout                           : L R C LFE Ls Rs Lb Rb
  41. Sampling rate                            : 48.0 kHz
  42. Frame rate                               : 1 200.000 FPS (40 SPF)
  43. Compression mode                         : Lossless
  44. Stream size                              : 2.78 GiB (23%)
  45. Title                                    : Spider-Man.Far.from.Home.2019.1080p.BluRay.x264.TrueHD.7.1.Atmos-FGT
  46. Language                                 : English
  47. Default                                  : Yes
  48. Forced                                   : No
  49. Number of dynamic objects                : 11
  50. Bed channel count                        : 1 channel
  51. Bed channel configuration                : LFE

  52. Audio #2
  53. ID                                       : 3
  54. Format                                   : AC-3
  55. Format/Info                              : Audio Coding 3
  56. Commercial name                          : Dolby Digital
  57. Codec ID                                 : A_AC3
  58. Duration                                 : 2 h 9 min
  59. Bit rate mode                            : Constant
  60. Bit rate                                 : 640 kb/s
  61. Channel(s)                               : 6 channels
  62. Channel layout                           : L R C LFE Ls Rs
  63. Sampling rate                            : 48.0 kHz
  64. Frame rate                               : 31.250 FPS (1536 SPF)
  65. Bit depth                                : 16 bits
  66. Compression mode                         : Lossy
  67. Stream size                              : 592 MiB (5%)
  68. Title                                    : Spider-Man.Far.from.Home.2019.1080p.BluRay.x264.TrueHD.7.1.Atmos-FGT
  69. Language                                 : English
  70. Service kind                             : Complete Main
  71. Default                                  : No
  72. Forced                                   : No

  73. Text #1
  74. ID                                       : 4
  75. Format                                   : UTF-8
  76. Codec ID                                 : S_TEXT/UTF8
  77. Codec ID/Info                            : UTF-8 Plain Text
  78. Duration                                 : 2 h 7 min
  79. Bit rate                                 : 65 b/s
  80. Count of elements                        : 1725
  81. Stream size                              : 61.1 KiB (0%)
  82. Title                                    : English-SRT
  83. Language                                 : English
  84. Default                                  : Yes
  85. Forced                                   : No

  86. Text #2
  87. ID                                       : 5
  88. Format                                   : PGS
  89. Muxing mode                              : zlib
  90. Codec ID                                 : S_HDMV/PGS
  91. Codec ID/Info                            : Picture based subtitle format used on BDs/HD-DVDs
  92. Duration                                 : 2 h 7 min
  93. Bit rate                                 : 38.9 kb/s
  94. Count of elements                        : 3466
  95. Stream size                              : 35.6 MiB (0%)
  96. Title                                    : English-PGS
  97. Language                                 : English
  98. Default                                  : No
  99. Forced                                   : No

  100. Text #3
  101. ID                                       : 6
  102. Format                                   : PGS
  103. Muxing mode                              : zlib
  104. Codec ID                                 : S_HDMV/PGS
  105. Codec ID/Info                            : Picture based subtitle format used on BDs/HD-DVDs
  106. Duration                                 : 2 h 8 min
  107. Bit rate                                 : 42.1 kb/s
  108. Count of elements                        : 3858
  109. Stream size                              : 38.6 MiB (0%)
  110. Title                                    : English-SDH-PGS
  111. Language                                 : English
  112. Default                                  : No
  113. Forced                                   : No

  114. Text #4
  115. ID                                       : 7
  116. Format                                   : PGS
  117. Muxing mode                              : zlib
  118. Codec ID                                 : S_HDMV/PGS
  119. Codec ID/Info                            : Picture based subtitle format used on BDs/HD-DVDs
  120. Duration                                 : 2 h 8 min
  121. Bit rate                                 : 20.2 kb/s
  122. Count of elements                        : 3446
  123. Stream size                              : 18.6 MiB (0%)
  124. Title                                    : Arabic-PGS
  125. Language                                 : Arabic
  126. Default                                  : No
  127. Forced                                   : No

  128. Text #5
  129. ID                                       : 8
  130. Format                                   : PGS
  131. Muxing mode                              : zlib
  132. Codec ID                                 : S_HDMV/PGS
  133. Codec ID/Info                            : Picture based subtitle format used on BDs/HD-DVDs
  134. Duration                                 : 2 h 8 min
  135. Bit rate                                 : 34.7 kb/s
  136. Count of elements                        : 3424
  137. Stream size                              : 31.9 MiB (0%)
  138. Title                                    : Bulgarian-PGS
  139. Language                                 : Bulgarian
  140. Default                                  : No
  141. Forced                                   : No

  142. Text #6
  143. ID                                       : 9
  144. Format                                   : PGS
  145. Muxing mode                              : zlib
  146. Codec ID                                 : S_HDMV/PGS
  147. Codec ID/Info                            : Picture based subtitle format used on BDs/HD-DVDs
  148. Duration                                 : 2 h 8 min
  149. Bit rate                                 : 31.5 kb/s
  150. Count of elements                        : 3460
  151. Stream size                              : 29.0 MiB (0%)
  152. Title                                    : Chinese-PGS
  153. Language                                 : Chinese
  154. Default                                  : No
  155. Forced                                   : No

  156. Text #7
  157. ID                                       : 10
  158. Format                                   : PGS
  159. Muxing mode                              : zlib
  160. Codec ID                                 : S_HDMV/PGS
  161. Codec ID/Info                            : Picture based subtitle format used on BDs/HD-DVDs
  162. Duration                                 : 2 h 8 min
  163. Bit rate                                 : 32.7 kb/s
  164. Count of elements                        : 3454
  165. Stream size                              : 30.1 MiB (0%)
  166. Title                                    : Chinese-PGS
  167. Language                                 : Chinese
  168. Default                                  : No
  169. Forced                                   : No

  170. Text #8
  171. ID                                       : 11
  172. Format                                   : PGS
  173. Muxing mode                              : zlib
  174. Codec ID                                 : S_HDMV/PGS
  175. Codec ID/Info                            : Picture based subtitle format used on BDs/HD-DVDs
  176. Duration                                 : 2 h 8 min
  177. Bit rate                                 : 28.0 kb/s
  178. Count of elements                        : 3496
  179. Stream size                              : 25.8 MiB (0%)
  180. Title                                    : Chinese-PGS
  181. Language                                 : Chinese
  182. Default                                  : No
  183. Forced                                   : No

  184. Text #9
  185. ID                                       : 12
  186. Format                                   : PGS
  187. Muxing mode                              : zlib
  188. Codec ID                                 : S_HDMV/PGS
  189. Codec ID/Info                            : Picture based subtitle format used on BDs/HD-DVDs
  190. Duration                                 : 2 h 8 min
  191. Bit rate                                 : 31.3 kb/s
  192. Count of elements                        : 3436
  193. Stream size                              : 28.8 MiB (0%)
  194. Title                                    : Croatian-PGS
  195. Language                                 : Croatian
  196. Default                                  : No
  197. Forced                                   : No

  198. Text #10
  199. ID                                       : 13
  200. Format                                   : PGS
  201. Muxing mode                              : zlib
  202. Codec ID                                 : S_HDMV/PGS
  203. Codec ID/Info                            : Picture based subtitle format used on BDs/HD-DVDs
  204. Duration                                 : 2 h 8 min
  205. Bit rate                                 : 34.1 kb/s
  206. Count of elements                        : 3356
  207. Stream size                              : 31.3 MiB (0%)
  208. Title                                    : Czech-PGS
  209. Language                                 : Czech
  210. Default                                  : No
  211. Forced                                   : No

  212. Text #11
  213. ID                                       : 14
  214. Format                                   : PGS
  215. Muxing mode                              : zlib
  216. Codec ID                                 : S_HDMV/PGS
  217. Codec ID/Info                            : Picture based subtitle format used on BDs/HD-DVDs
  218. Duration                                 : 2 h 8 min
  219. Bit rate                                 : 31.6 kb/s
  220. Count of elements                        : 3348
  221. Stream size                              : 29.1 MiB (0%)
  222. Title                                    : French-PGS
  223. Language                                 : French
  224. Default                                  : No
  225. Forced                                   : No

  226. Text #12
  227. ID                                       : 15
  228. Format                                   : PGS
  229. Muxing mode                              : zlib
  230. Codec ID                                 : S_HDMV/PGS
  231. Codec ID/Info                            : Picture based subtitle format used on BDs/HD-DVDs
  232. Duration                                 : 2 h 8 min
  233. Bit rate                                 : 37.6 kb/s
  234. Count of elements                        : 3434
  235. Stream size                              : 34.5 MiB (0%)
  236. Title                                    : Greek-PGS
  237. Language                                 : Greek
  238. Default                                  : No
  239. Forced                                   : No

  240. Text #13
  241. ID                                       : 16
  242. Format                                   : PGS
  243. Muxing mode                              : zlib
  244. Codec ID                                 : S_HDMV/PGS
  245. Codec ID/Info                            : Picture based subtitle format used on BDs/HD-DVDs
  246. Duration                                 : 2 h 8 min
  247. Bit rate                                 : 28.4 kb/s
  248. Count of elements                        : 3414
  249. Stream size                              : 26.1 MiB (0%)
  250. Title                                    : Hebrew-PGS
  251. Language                                 : Hebrew
  252. Default                                  : No
  253. Forced                                   : No

  254. Text #14
  255. ID                                       : 17
  256. Format                                   : PGS
  257. Muxing mode                              : zlib
  258. Codec ID                                 : S_HDMV/PGS
  259. Codec ID/Info                            : Picture based subtitle format used on BDs/HD-DVDs
  260. Duration                                 : 2 h 8 min
  261. Bit rate                                 : 32.9 kb/s
  262. Count of elements                        : 3082
  263. Stream size                              : 30.2 MiB (0%)
  264. Title                                    : Hungarian-PGS
  265. Language                                 : Hungarian
  266. Default                                  : No
  267. Forced                                   : No

  268. Text #15
  269. ID                                       : 18
  270. Format                                   : PGS
  271. Muxing mode                              : zlib
  272. Codec ID                                 : S_HDMV/PGS
  273. Codec ID/Info                            : Picture based subtitle format used on BDs/HD-DVDs
  274. Duration                                 : 2 h 8 min
  275. Bit rate                                 : 35.1 kb/s
  276. Count of elements                        : 3270
  277. Stream size                              : 32.3 MiB (0%)
  278. Title                                    : Icelandic-PGS
  279. Language                                 : Icelandic
  280. Default                                  : No
  281. Forced                                   : No

  282. Text #16
  283. ID                                       : 19
  284. Format                                   : PGS
  285. Muxing mode                              : zlib
  286. Codec ID                                 : S_HDMV/PGS
  287. Codec ID/Info                            : Picture based subtitle format used on BDs/HD-DVDs
  288. Duration                                 : 2 h 8 min
  289. Bit rate                                 : 37.8 kb/s
  290. Count of elements                        : 3326
  291. Stream size                              : 34.7 MiB (0%)
  292. Title                                    : Indonesian-PGS
  293. Language                                 : Indonesian
  294. Default                                  : No
  295. Forced                                   : No

  296. Text #17
  297. ID                                       : 20
  298. Format                                   : PGS
  299. Muxing mode                              : zlib
  300. Codec ID                                 : S_HDMV/PGS
  301. Codec ID/Info                            : Picture based subtitle format used on BDs/HD-DVDs
  302. Duration                                 : 2 h 8 min
  303. Bit rate                                 : 28.6 kb/s
  304. Count of elements                        : 3482
  305. Stream size                              : 26.3 MiB (0%)
  306. Title                                    : Korean-PGS
  307. Language                                 : Korean
  308. Default                                  : No
  309. Forced                                   : No

  310. Text #18
  311. ID                                       : 21
  312. Format                                   : PGS
  313. Muxing mode                              : zlib
  314. Codec ID                                 : S_HDMV/PGS
  315. Codec ID/Info                            : Picture based subtitle format used on BDs/HD-DVDs
  316. Duration                                 : 2 h 8 min
  317. Bit rate                                 : 32.1 kb/s
  318. Count of elements                        : 3326
  319. Stream size                              : 29.6 MiB (0%)
  320. Title                                    : Polish-PGS
  321. Language                                 : Polish
  322. Default                                  : No
  323. Forced                                   : No

  324. Text #19
  325. ID                                       : 22
  326. Format                                   : PGS
  327. Muxing mode                              : zlib
  328. Codec ID                                 : S_HDMV/PGS
  329. Codec ID/Info                            : Picture based subtitle format used on BDs/HD-DVDs
  330. Duration                                 : 2 h 8 min
  331. Bit rate                                 : 34.4 kb/s
  332. Count of elements                        : 3350
  333. Stream size                              : 31.6 MiB (0%)
  334. Title                                    : Portuguese-PGS
  335. Language                                 : Portuguese
  336. Default                                  : No
  337. Forced                                   : No

  338. Text #20
  339. ID                                       : 23
  340. Format                                   : PGS
  341. Muxing mode                              : zlib
  342. Codec ID                                 : S_HDMV/PGS
  343. Codec ID/Info                            : Picture based subtitle format used on BDs/HD-DVDs
  344. Duration                                 : 2 h 8 min
  345. Bit rate                                 : 37.0 kb/s
  346. Count of elements                        : 3350
  347. Stream size                              : 34.0 MiB (0%)
  348. Title                                    : Portuguese-PGS
  349. Language                                 : Portuguese
  350. Default                                  : No
  351. Forced                                   : No

  352. Text #21
  353. ID                                       : 24
  354. Format                                   : PGS
  355. Muxing mode                              : zlib
  356. Codec ID                                 : S_HDMV/PGS
  357. Codec ID/Info                            : Picture based subtitle format used on BDs/HD-DVDs
  358. Duration                                 : 2 h 8 min
  359. Bit rate                                 : 35.0 kb/s
  360. Count of elements                        : 3176
  361. Stream size                              : 32.2 MiB (0%)
  362. Title                                    : Romanian-PGS
  363. Language                                 : Romanian
  364. Default                                  : No
  365. Forced                                   : No

  366. Text #22
  367. ID                                       : 25
  368. Format                                   : PGS
  369. Muxing mode                              : zlib
  370. Codec ID                                 : S_HDMV/PGS
  371. Codec ID/Info                            : Picture based subtitle format used on BDs/HD-DVDs
  372. Duration                                 : 2 h 8 min
  373. Bit rate                                 : 35.0 kb/s
  374. Count of elements                        : 3454
  375. Stream size                              : 32.2 MiB (0%)
  376. Title                                    : Serbian-PGS
  377. Language                                 : Serbian
  378. Default                                  : No
  379. Forced                                   : No

  380. Text #23
  381. ID                                       : 26
  382. Format                                   : PGS
  383. Muxing mode                              : zlib
  384. Codec ID                                 : S_HDMV/PGS
  385. Codec ID/Info                            : Picture based subtitle format used on BDs/HD-DVDs
  386. Duration                                 : 2 h 8 min
  387. Bit rate                                 : 31.6 kb/s
  388. Count of elements                        : 3438
  389. Stream size                              : 29.1 MiB (0%)
  390. Title                                    : Slovak-PGS
  391. Language                                 : Slovak
  392. Default                                  : No
  393. Forced                                   : No

  394. Text #24
  395. ID                                       : 27
  396. Format                                   : PGS
  397. Muxing mode                              : zlib
  398. Codec ID                                 : S_HDMV/PGS
  399. Codec ID/Info                            : Picture based subtitle format used on BDs/HD-DVDs
  400. Duration                                 : 2 h 8 min
  401. Bit rate                                 : 29.6 kb/s
  402. Count of elements                        : 2920
  403. Stream size                              : 27.2 MiB (0%)
  404. Title                                    : Slovenian-PGS
  405. Language                                 : Slovenian
  406. Default                                  : No
  407. Forced                                   : No

  408. Text #25
  409. ID                                       : 28
  410. Format                                   : PGS
  411. Muxing mode                              : zlib
  412. Codec ID                                 : S_HDMV/PGS
  413. Codec ID/Info                            : Picture based subtitle format used on BDs/HD-DVDs
  414. Duration                                 : 2 h 8 min
  415. Bit rate                                 : 36.5 kb/s
  416. Count of elements                        : 3438
  417. Stream size                              : 33.6 MiB (0%)
  418. Title                                    : Spanish-PGS
  419. Language                                 : Spanish
  420. Default                                  : No
  421. Forced                                   : No

  422. Text #26
  423. ID                                       : 29
  424. Format                                   : PGS
  425. Muxing mode                              : zlib
  426. Codec ID                                 : S_HDMV/PGS
  427. Codec ID/Info                            : Picture based subtitle format used on BDs/HD-DVDs
  428. Duration                                 : 2 h 8 min
  429. Bit rate                                 : 33.0 kb/s
  430. Count of elements                        : 3504
  431. Stream size                              : 30.4 MiB (0%)
  432. Title                                    : Thai-PGS
  433. Language                                 : Thai
  434. Default                                  : No
  435. Forced                                   : No

  436. Text #27
  437. ID                                       : 30
  438. Format                                   : PGS
  439. Muxing mode                              : zlib
  440. Codec ID                                 : S_HDMV/PGS
  441. Codec ID/Info                            : Picture based subtitle format used on BDs/HD-DVDs
  442. Duration                                 : 2 h 8 min
  443. Bit rate                                 : 36.7 kb/s
  444. Count of elements                        : 3436
  445. Stream size                              : 33.8 MiB (0%)
  446. Title                                    : Turkish-PGS
  447. Language                                 : Turkish
  448. Default                                  : No
  449. Forced                                   : No

  450. Menu
  451. 00:00:00.000                             : en:Chapter 01
  452. 00:09:35.033                             : en:Chapter 02
  453. 00:16:06.716                             : en:Chapter 03
  454. 00:25:18.475                             : en:Chapter 04
  455. 00:35:26.499                             : en:Chapter 05
  456. 00:41:57.014                             : en:Chapter 06
  457. 00:49:50.029                             : en:Chapter 07
  458. 00:57:09.509                             : en:Chapter 08
  459. 01:04:50.637                             : en:Chapter 09
  460. 01:15:57.219                             : en:Chapter 10
  461. 01:22:49.089                             : en:Chapter 11
  462. 01:29:25.193                             : en:Chapter 12
  463. 01:36:43.256                             : en:Chapter 13
  464. 01:44:47.364                             : en:Chapter 14
  465. 01:52:17.397                             : en:Chapter 15
  466. 01:57:45.433                             : en:Chapter 16
复制代码


精彩剧照

蜘蛛侠:英雄远征/新蜘蛛侠2 Spider-Man.Far.from.Home.2019.1080p.BluRay.x264.TrueHD.7.1.Atmos-FGT 12.32 ...

蜘蛛侠:英雄远征/新蜘蛛侠2 Spider-Man.Far.from.Home.2019.1080p.BluRay.x264.TrueHD.7.1.Atmos-FGT 12.32 ...

蜘蛛侠:英雄远征/新蜘蛛侠2 Spider-Man.Far.from.Home.2019.1080p.BluRay.x264.TrueHD.7.1.Atmos-FGT 12.32 ...

蜘蛛侠:英雄远征/新蜘蛛侠2 Spider-Man.Far.from.Home.2019.1080p.BluRay.x264.TrueHD.7.1.Atmos-FGT 12.32 ...

蜘蛛侠:英雄远征/新蜘蛛侠2 Spider-Man.Far.from.Home.2019.1080p.BluRay.x264.TrueHD.7.1.Atmos-FGT 12.32 ...

蜘蛛侠:英雄远征/新蜘蛛侠2 Spider-Man.Far.from.Home.2019.1080p.BluRay.x264.TrueHD.7.1.Atmos-FGT 12.32 ...



蓝光高清网提示您 点击下方附件名称 马上开始下载

Spider-Man.Far.from.Home.2019.1080p.BluRay.x264.TrueHD.7.1.Atmos-FGT.torrent (62.16 KB, 下载次数: 3)

加入蓝光高清网VIP会员  无限制下载本站所有资源---点此加入

资源下载、资源播放、字幕使用、无法下载等常见问题---点这里

回复

使用道具 举报

精彩评论7

做一个煎饼需要 发表于 2019-9-23 20:06:25 | 显示全部楼层
Spider-Man.Far.from.Home.2019.1080p.BluRay.x264.TrueHD.7.1.Atmos-FGT.torrent

加入蓝光高清网VIP会员  无限制下载本站所有资源---点此加入

资源下载、资源播放、字幕使用、无法下载等常见问题---点这里

回复

使用道具 举报

做一个煎饼需要 发表于 2019-9-23 20:06:59 | 显示全部楼层
Spider-Man.Far.from.Home.2019.1080p.BluRay.x264.TrueHD.7.1.Atmos-FGT.torrent

加入蓝光高清网VIP会员  无限制下载本站所有资源---点此加入

资源下载、资源播放、字幕使用、无法下载等常见问题---点这里

回复

使用道具 举报

匿名  发表于 2019-9-24 19:59:53
刷新网页进行下载操作

加入蓝光高清网VIP会员  无限制下载本站所有资源---点此加入

资源下载、资源播放、字幕使用、无法下载等常见问题---点这里

回复

使用道具

dongerlq 发表于 2019-10-2 17:03:52 | 显示全部楼层
1、Spider-Man.Far.from.Home.2019.1080p.BluRay.x264.TrueHD.7.1.Atmos-FGT.torrent

加入蓝光高清网VIP会员  无限制下载本站所有资源---点此加入

资源下载、资源播放、字幕使用、无法下载等常见问题---点这里

回复

使用道具 举报

电影教师 发表于 2019-10-11 09:07:31 | 显示全部楼层
1231332135135113

加入蓝光高清网VIP会员  无限制下载本站所有资源---点此加入

资源下载、资源播放、字幕使用、无法下载等常见问题---点这里

回复

使用道具 举报

lixiaoguang0214 发表于 2019-10-12 20:47:08 | 显示全部楼层
Spider-Man.Far.from.Home.2019.1080p.BluRay.x264.TrueHD.7.1.Atmos-FGT.torrent

加入蓝光高清网VIP会员  无限制下载本站所有资源---点此加入

资源下载、资源播放、字幕使用、无法下载等常见问题---点这里

回复

使用道具 举报

yuanfenkubi 发表于 6 天前 | 显示全部楼层
好看,吵架帮

加入蓝光高清网VIP会员  无限制下载本站所有资源---点此加入

资源下载、资源播放、字幕使用、无法下载等常见问题---点这里

回复

使用道具 举报

懒得打字嘛,点击右侧快捷回复
高级模式
B Color Image Link Quote Code Smilies 上传

本版积分规则

关注0

粉丝0

帖子66561

发布主题
最新电影 论坛
广告位
联系我们
点击这里联系客服

服务时间:
周一到周日8:00-23:30

  • 打开微信扫一扫
    关注公众号

  • 手机QQ扫一扫
    添加客服

Archiver手机版蓝光高清网 ( 渝ICP备18006373号-2 )|网站地图

Powered by Discuz! X3.4  © 2001-2013 Comsenz Inc.