[专题系列纪录片] 八个视点 Visions.of.Eight.1973.1080p.BluRay.x264-SUMMERX 7.94GB

[复制链接]
蓝鸟VIP会员 永久VIP 发表于 2019-8-1 14:19:39 | 显示全部楼层 |阅读模式 打印 上一主题 下一主题

马上注册,轻松下载,海量资源,让你轻松玩转社区。

您需要 登录 才可以下载或查看,没有帐号?立即注册

x
八个视点 Visions.of.Eight.1973.1080p.BluRay.x264-SUMMERX 7.94GB-1.png


译  名 八个视点 / München 1972 - 8 berühmte Regisseure sehen die Spiele der XX. Olympiade
片  名 Visions of Eight
年  代 1973
产  地 美国 / 西德
类  别 纪录片 / 运动
语  言 英语
上映日期 1973-08-10(美国)
IMDb评分  7.0/10 from 275 users
IMDb链接  http://www.imdb.com/title/tt0070884
豆瓣评分 8.1/10 from 61 users
豆瓣链接 https://movie.douban.com/subject/1298851/
片  长 110分钟
导  演 阿瑟·佩恩 Arthur Penn / 克劳德·勒鲁什 Claude Lelouch / 约翰·施莱辛格 John Schlesinger / 米洛斯·福尔曼 Milo? Forman / 梅·扎特林 Mai Zetterling / Yuri Ozerov / 市川昆 Kon Ichikawa / Michael Pfleghar
编  剧 David Hughes / Deliara Ozerowa / 谷川俊太郎 Shuntaro Tanikawa

标  签 纪录片 | 美国 | 德国 | 奥运官方电影 | 米洛斯·福尔曼 | 市川昆 | 运动 | ClaudeLelouch

简  介  

  Visions of Eight is a 1973 documentary film offering a stylized look at the 1972 Summer Olympics, directed by eight different directors. It was screened at the 1973 Cannes Film Festival, but wasn't entered into the main competition.

  • Video
  • ID                                       : 1
  • Format                                   : AVC
  • Format/Info                              : Advanced Video Codec
  • Format profile                           : <a href="/cdn-cgi/l/email-protection" class="__cf_email__" data-cfemail="afe7c6c8c7efe39b819e">[email protected]</a>
  • Format settings                          : CABAC / 4 Ref Frames
  • Format settings, CABAC                   : Yes
  • Format settings, Reference frames        : 4 frames
  • Muxing mode                              : Header stripping
  • Codec ID                                 : V_MPEG4/ISO/AVC
  • Duration                                 : 1 h 50 min
  • Bit rate                                 : 9 692 kb/s
  • Width                                    : 1 920 pixels
  • Height                                   : 1 048 pixels
  • Display aspect ratio                     : 1.85:1
  • Frame rate mode                          : Constant
  • Frame rate                               : 23.976 FPS
  • Color space                              : YUV
  • Chroma subsampling                       : 4:2:0
  • Bit depth                                : 8 bits
  • Scan type                                : Progressive
  • Bits/(Pixel*Frame)                       : 0.201
  • Stream size                              : 7.29 GiB (92%)
  • Writing library                          : x264 core 155 r2893 b00bcaf
  • Encoding settings                        : cabac=1 / ref=4 / deblock=1:0:0 / analyse=0x3:0x113 / me=umh / subme=7 / psy=1 / psy_rd=1.00:0.00 / mixed_ref=1 / me_range=16 / chroma_me=1 / trellis=1 / 8x8dct=1 / cqm=0 / deadzone=21,11 / fast_pskip=0 / chroma_qp_offset=-2 / threads=12 / lookahead_threads=2 / sliced_threads=0 / nr=0 / decimate=1 / interlaced=0 / bluray_compat=0 / constrained_intra=0 / bframes=3 / b_pyramid=2 / b_adapt=1 / b_bias=0 / direct=1 / weightb=1 / open_gop=0 / weightp=2 / keyint=250 / keyint_min=23 / scenecut=40 / intra_refresh=0 / rc_lookahead=40 / rc=2pass / mbtree=1 / bitrate=9692 / ratetol=1.0 / qcomp=0.60 / qpmin=0 / qpmax=69 / qpstep=4 / cplxblur=20.0 / qblur=0.5 / ip_ratio=1.40 / aq=1:1.00
  • Language                                 : English
  • Default                                  : Yes
  • Forced                                   : No
  • Audio
  • ID                                       : 2
  • Format                                   : AC-3
  • Format/Info                              : Audio Coding 3
  • Commercial name                          : Dolby Digital
  • Muxing mode                              : Header stripping
  • Codec ID                                 : A_AC3
  • Duration                                 : 1 h 50 min
  • Bit rate mode                            : Constant
  • Bit rate                                 : 640 kb/s
  • Channel(s)                               : 1 channel
  • Channel layout                           : C
  • Sampling rate                            : 48.0 kHz
  • Frame rate                               : 31.250 FPS (1536 SPF)
  • Bit depth                                : 16 bits
  • Compression mode                         : Lossy
  • Stream size                              : 504 MiB (6%)
  • Service kind                             : Complete Main
  • Default                                  : Yes
  • Forced                                   : No
  • Text
  • ID                                       : 3
  • Format                                   : UTF-8
  • Codec ID                                 : S_TEXT/UTF8
  • Codec ID/Info                            : UTF-8 Plain Text
  • Language                                 : English
  • Default                                  : Yes
  • Forced                                   : No

复制代码



精彩剧照


八个视点 Visions.of.Eight.1973.1080p.BluRay.x264-SUMMERX 7.94GB-2.png 八个视点 Visions.of.Eight.1973.1080p.BluRay.x264-SUMMERX 7.94GB-3.png 八个视点 Visions.of.Eight.1973.1080p.BluRay.x264-SUMMERX 7.94GB-4.png


蓝光高清网提示您  点击下方附件名称  马上开始下载

Visions.of.Eight.1973.1080p.BluRay.x264-SUMMERX.torrent (40.21 KB, 下载次数: 0)
限时活动!!本月底截止,仅需9.9元/月加入VIP会员即可随心下载本站所有资源---点此了解
资源下载、资源播放、字幕使用、无法下载等常见问题---点这里
回复

使用道具 举报

精彩评论12

yangwz 发表于 2019-8-1 16:24:39 | 显示全部楼层
谢谢  下载了  3Q
限时活动!!本月底截止,仅需9.9元/月加入VIP会员即可随心下载本站所有资源---点此了解
资源下载、资源播放、字幕使用、无法下载等常见问题---点这里
回复

使用道具 举报

nanchao 发表于 2019-8-1 17:05:55 | 显示全部楼层
好电影 谢谢楼主分享
限时活动!!本月底截止,仅需9.9元/月加入VIP会员即可随心下载本站所有资源---点此了解
资源下载、资源播放、字幕使用、无法下载等常见问题---点这里
回复

使用道具 举报

zykdyj 发表于 2019-8-1 20:06:21 | 显示全部楼层
楼主幸苦了
限时活动!!本月底截止,仅需9.9元/月加入VIP会员即可随心下载本站所有资源---点此了解
资源下载、资源播放、字幕使用、无法下载等常见问题---点这里
回复

使用道具 举报

nowboss 发表于 2019-8-1 20:42:24 | 显示全部楼层
谢谢  下载了  3Q
限时活动!!本月底截止,仅需9.9元/月加入VIP会员即可随心下载本站所有资源---点此了解
资源下载、资源播放、字幕使用、无法下载等常见问题---点这里
回复

使用道具 举报

影殇·天问 发表于 2019-8-1 21:08:12 | 显示全部楼层
好网站 希望越来越好
限时活动!!本月底截止,仅需9.9元/月加入VIP会员即可随心下载本站所有资源---点此了解
资源下载、资源播放、字幕使用、无法下载等常见问题---点这里
回复

使用道具 举报

neo_ 发表于 2019-8-1 21:54:14 | 显示全部楼层
楼主幸苦了
限时活动!!本月底截止,仅需9.9元/月加入VIP会员即可随心下载本站所有资源---点此了解
资源下载、资源播放、字幕使用、无法下载等常见问题---点这里
回复

使用道具 举报

typelv 发表于 2019-8-2 06:15:03 | 显示全部楼层
八个视点 Visions.of.Eight.1973.1080p.BluRay.x264-SUMMERX 7.94GB
限时活动!!本月底截止,仅需9.9元/月加入VIP会员即可随心下载本站所有资源---点此了解
资源下载、资源播放、字幕使用、无法下载等常见问题---点这里
回复

使用道具 举报

lovewow 发表于 2019-8-2 06:40:48 | 显示全部楼层
真是 收益 匪浅
限时活动!!本月底截止,仅需9.9元/月加入VIP会员即可随心下载本站所有资源---点此了解
资源下载、资源播放、字幕使用、无法下载等常见问题---点这里
回复

使用道具 举报

tadeum 发表于 2019-8-2 07:08:24 | 显示全部楼层
相当不错,感谢无私分享精神!
限时活动!!本月底截止,仅需9.9元/月加入VIP会员即可随心下载本站所有资源---点此了解
资源下载、资源播放、字幕使用、无法下载等常见问题---点这里
回复

使用道具 举报

懒得打字嘛,点击右侧快捷回复
您需要登录后才可以回帖 登录 | 立即注册

本版积分规则

关注0

粉丝0

帖子10862

发布主题
最新电影 论坛
广告位
Empty Ads

Archiver手机版蓝光高清网 ( 渝ICP备18006373号-2 )|网站地图

Powered by Discuz! X3.4  © 2001-2013 Comsenz Inc.