[舞台/音乐纪录片] 洛城少女二十五岁 The.Young.Girls.Turn.25.1993.1080p.BluRay.x264-BiPOLAR 4.37GB

[复制链接]
蓝鸟VIP会员 永久VIP 发表于 2019-8-6 17:49:50 | 显示全部楼层 |阅读模式 打印 上一主题 下一主题

马上注册,轻松下载,海量资源,让你轻松玩转社区。

您需要 登录 才可以下载或查看,没有帐号?立即注册

x
洛城少女二十五岁 The.Young.Girls.Turn.25.1993.1080p.BluRay.x264-BiPOLAR 4.37GB-1.png


译  名 洛城少女二十五岁 / The Young Girls Turn 25 / 洛城少女曾经二十五岁
片  名 Les Demoiselles Ont Eu 25 Ans
年  代 1993
产  地 法国
类  别 纪录片 / 音乐
语  言 法语
上映日期 1993-10
IMDb评分  7.1/10 from 215 users
IMDb链接  http://www.imdb.com/title/tt0106696
豆瓣评分 8.1/10 from 288 users
豆瓣链接 https://movie.douban.com/subject/1507262/
片  长 64 分钟
导  演 Agnès Varda
编  剧 Agnès Varda
主  演 凯瑟琳·德纳芙 Catherine Deneuve
      阿涅斯·瓦尔达 Agnès Varda
      米歇尔·勒格朗 Michel Legrand
      雅克·贝汉 Jacques Perrin
      贝特朗·塔维涅 Bertrand Tavernier
      Mag Bodard
      Bernard Evein
      Jean-Louis Frot
      Pierre Beacousin
      乔治·查金思 George Chakiris
      达尼埃尔·达里约 Danielle Darrieux
      雅克·德米 Jacques Demy
      弗朗索瓦·朵列 Fran?oise Dorléac
      吉恩·凯利 Gene Kelly
      米歇尔·皮科利 Michel Piccoli
      雅克·里伯罗勒 Jacques Riberolles


标  签 法国 | 纪录片 | 阿涅斯·瓦尔达 | AgnèsVarda | 法国电影 | Agnès_Varda | 1990s | CatherineDeneuve

简  介  

  是一部关于Jacques Demy 的《[http://www.imdb.com/title/tt0062873/ 洛城少女]》(Demoiselles de Rochefort,1966)的纪录片,片中混合了当初拍片的现场纪录和二十几年后Rochefort当地为影片庆生的实况。
In 1967, the phenomenally successful director of the films Lola and the groundbreaking musical Les Parapluies de Cherbourg, Jacques Demy, arrived in the little port town of Rochefort and, together with his art director, decorated the whole town in cheerful, almost surreal fashion for the filming of his next musical, Les Demoiselles de Rochefort. This enormously well-received film, packed with songs which became integral to French popular culture, put the little town of Rochefort "on the map." Twenty five years later, a lot of things have changed except for the fond memories of the people who worked on the film, and of the townspeople. In this celebratory documentary, Agnes Varda, the wife of Jacques Demy, brings some of the players and extras together back in Rochefort for some reminiscences. In keeping with the thoroughly romantic nature of the musical, she also tells the story of how Les Demoiselles de Rochefort's extras found romance and had their lives changed by participating in its making. The present-day story is highlighted by clips from the earlier film, and from a documentary of the period showing how it was made. ~ Clarke Fountain, All Movie Guide

  • Video
  • ID                                       : 1
  • Format                                   : AVC
  • Format/Info                              : Advanced Video Codec
  • Format profile                           : <a href="/cdn-cgi/l/email-protection" class="__cf_email__" data-cfemail="88c0e1efe0c8c4bca6b9">[email protected]</a>
  • Format settings                          : CABAC / 4 Ref Frames
  • Format settings, CABAC                   : Yes
  • Format settings, Reference frames        : 4 frames
  • Codec ID                                 : V_MPEG4/ISO/AVC
  • Duration                                 : 1 h 6 min
  • Bit rate                                 : 9 160 kb/s
  • Width                                    : 1 488 pixels
  • Height                                   : 1 080 pixels
  • Display aspect ratio                     : 1.378
  • Frame rate mode                          : Constant
  • Frame rate                               : 23.976 (24000/1001) FPS
  • Color space                              : YUV
  • Chroma subsampling                       : 4:2:0
  • Bit depth                                : 8 bits
  • Scan type                                : Progressive
  • Bits/(Pixel*Frame)                       : 0.238
  • Stream size                              : 4.28 GiB (98%)
  • Writing library                          : x264 core 157 r2969 d4099dd
  • Encoding settings                        : cabac=1 / ref=4 / deblock=1:-3:-3 / analyse=0x3:0x133 / me=umh / subme=9 / psy=1 / psy_rd=1.00:0.00 / mixed_ref=1 / me_range=16 / chroma_me=1 / trellis=2 / 8x8dct=1 / cqm=0 / deadzone=21,11 / fast_pskip=0 / chroma_qp_offset=-2 / threads=18 / lookahead_threads=1 / sliced_threads=0 / nr=0 / decimate=1 / interlaced=0 / bluray_compat=0 / constrained_intra=0 / bframes=3 / b_pyramid=2 / b_adapt=1 / b_bias=0 / direct=3 / weightb=1 / open_gop=0 / weightp=2 / keyint=240 / keyint_min=24 / scenecut=40 / intra_refresh=0 / rc_lookahead=50 / rc=2pass / mbtree=1 / bitrate=9160 / ratetol=1.0 / qcomp=0.60 / qpmin=0 / qpmax=69 / qpstep=4 / cplxblur=20.0 / qblur=0.5 / ip_ratio=1.40 / aq=1:1.00
  • Language                                 : English
  • Default                                  : Yes
  • Forced                                   : No
  • Audio
  • ID                                       : 2
  • Format                                   : AC-3
  • Format/Info                              : Audio Coding 3
  • Commercial name                          : Dolby Digital
  • Codec ID                                 : A_AC3
  • Duration                                 : 1 h 6 min
  • Bit rate mode                            : Constant
  • Bit rate                                 : 192 kb/s
  • Channel(s)                               : 1 channel
  • Channel layout                           : C
  • Sampling rate                            : 48.0 kHz
  • Frame rate                               : 31.250 FPS (1536 SPF)
  • Bit depth                                : 16 bits
  • Compression mode                         : Lossy
  • Stream size                              : 91.9 MiB (2%)
  • Language                                 : French
  • Service kind                             : Complete Main
  • Default                                  : Yes
  • Forced                                   : No
  • Text
  • ID                                       : 3
  • Format                                   : UTF-8
  • Codec ID                                 : S_TEXT/UTF8
  • Codec ID/Info                            : UTF-8 Plain Text
  • Duration                                 : 1 h 5 min
  • Bit rate                                 : 62 b/s
  • Count of elements                        : 815
  • Stream size                              : 29.8 KiB (0%)
  • Title                                    : English
  • Language                                 : English
  • Default                                  : Yes
  • Forced                                   : Yes
  • Menu
  • 00:00:00.000                             : en:00:00:00.000
  • 00:10:42.517                             : en:00:10:42.517
  • 00:31:09.326                             : en:00:31:09.326
  • 00:39:36.916                             : en:00:39:36.916
  • 00:54:14.668                             : en:00:54:14.668

复制代码



精彩剧照


洛城少女二十五岁 The.Young.Girls.Turn.25.1993.1080p.BluRay.x264-BiPOLAR 4.37GB-2.png

蓝光高清网提示您  点击下方附件名称  马上开始下载

The.Young.Girls.Turn.25.1993.1080p.BluRay.x264-BiPOLAR (1).torrent (44.37 KB, 下载次数: 0)
限时活动!!本月底截止,仅需9.9元/月加入VIP会员即可随心下载本站所有资源---点此了解
资源下载、资源播放、字幕使用、无法下载等常见问题---点这里
回复

使用道具 举报

精彩评论1

wengkejian 发表于 2019-8-6 17:54:51 | 显示全部楼层
终于找到了  谢谢分享
限时活动!!本月底截止,仅需9.9元/月加入VIP会员即可随心下载本站所有资源---点此了解
资源下载、资源播放、字幕使用、无法下载等常见问题---点这里
回复

使用道具 举报

懒得打字嘛,点击右侧快捷回复
您需要登录后才可以回帖 登录 | 立即注册

本版积分规则

关注0

粉丝0

帖子10846

发布主题
最新电影 论坛
广告位
Empty Ads

Archiver手机版蓝光高清网 ( 渝ICP备18006373号-2 )|网站地图

Powered by Discuz! X3.4  © 2001-2013 Comsenz Inc.