[BBC纪录片] BBC:[从太空看地球][第一季/全肆集]【DTS国语/简繁/双语特效】Earth From Space S01.EP01-EP04.2019.Blu-ray.1080p.x264.dts-5.1.DTS-2.0-DVB@szsddqwx 19.93GB

[复制链接]
MYadminwl*#VIP会员 年费VIP会员 发表于 2019-9-23 09:01:26 | 显示全部楼层 |阅读模式 打印 上一主题 下一主题

马上注册,轻松下载,海量资源,让你轻松玩转社区。

您需要 登录 才可以下载或查看,没有帐号?立即注册

x



影片标题

BBC:[从太空看地球][第一季/全肆集]【DTS国语/简繁/双语特效】[我们的星球并不健康,呵护家园从你我他,一滴水,一度电做起,因为他是我们人类共同家园]


Earth From Space S01.EP01-EP04.2019.Blu-ray.1080p.x264.dts-5.1.DTS-2.0-DVB@szsddqwx

影片信息
中文名称:从太空看地球

英文名称:Earth From Space

年        代:
2019

首播时间:2019-04-17(英国)

国家地区:
英国

语言种类:
英语

影片类型:纪录片

集       数:
4

单集片长:50分钟

导      演:
巴尼·雷维尔

主      演:切瓦特·埃加福特

豆瓣评分:
9.6/10/512

豆瓣链接:https://movie.douban.com/subject/27061461/

IMDb评分
:8.2/10/131

IMDb链接:
https://www.imdb.com/title/tt10165710/


剧情介绍:

      从太空俯瞰地球,我们的地球之美令人心旷神怡。与此同时,我们生活的时代,地球表面正在发生着前所未有的迅速变化,我们目睹着人类行为给地球带来积极/消极的影响。

           我们试着换一个角度,借助架设在地面、空中、太空中的拍摄设备,用更辽阔的视角讲述地球上的生命故事,以及前所未见的地球家园。

第一集:

[从太空看地球:太空新视角].Earth.from.Space.2019.S01.EP01

第二集:

[从太空看地球:地球上的奇特形状].Earth.from.Space.2019.S01.EP02

第三集:


[从太空看地球:色彩缤纷的地球].Earth.from.Space.2019.S01.EP03

第4集:

[从太空看地球:变化中的地球].Earth.from.Space.2019.S01.EP04


影片参数
  • Format : Matroska
  • Format version : Version 4
  • File size : 4.98 GiB
  • Duration : 57 min 46 s
  • Overall bit rate : 12.3 Mb/s
  • Encoded date : UTC 2019-08-07 02:00:19
  • Writing application : mkvmerge v34.0.0 ('Sight and Seen') 64-bit
  • Writing library : libebml v1.3.7 + libmatroska v1.5.0
  • Video
  • ID : 1
  • Format : AVC
  • Format/Info : Advanced Video Codec
  • Format profile : High@L4.1
  • Format settings : CABAC / 4 Ref Frames
  • Format settings, CABAC : Yes
  • Format settings, Reference fra : 4 frames
  • Codec ID : V_MPEG4/ISO/AVC
  • Duration : 57 min 46 s
  • Bit rate : 9 322 kb/s
  • Width : 1 920 pixels
  • Height : 1 080 pixels
  • Display aspect ratio : 16:9
  • Frame rate mode : Constant
  • Frame rate : 25.000 FPS
  • Color space : YUV
  • Chroma subsampling : 4:2:0
  • Bit depth : 8 bits
  • Scan type : Progressive
  • Bits/(Pixel*Frame) : 0.180
  • Stream size : 3.76 GiB (76%)
  • Writing library : x264 core 157 r2969 d4099dd
  • Encoding settings : cabac=1 / ref=4 / deblock=1:-3:-3 / analyse=0x3:0x133 / me=umh / subme=9 / psy=1 / psy_rd=1.00:0.00 / mixed_ref=1 / me_range=24 / chroma_me=1 / trellis=1 / 8x8dct=1 / cqm=0 / deadzone=21,11 / fast_pskip=0 / chroma_qp_offset=-2 / threads=24 / lookahead_threads=4 / sliced_threads=0 / nr=0 / decimate=1 / interlaced=0 / bluray_compat=0 / constrained_intra=0 / bframes=8 / b_pyramid=2 / b_adapt=2 / b_bias=0 / direct=3 / weightb=1 / open_gop=0 / weightp=2 / keyint=250 / keyint_min=25 / scenecut=40 / intra_refresh=0 / rc_lookahead=60 / rc=2pass / mbtree=1 / bitrate=9322 / ratetol=1.0 / qcomp=0.60 / qpmin=0 / qpmax=69 / qpstep=4 / cplxblur=20.0 / qblur=0.5 / vbv_maxrate=62500 / vbv_bufsize=78125 / nal_hrd=none / filler=0 / ip_ratio=1.40 / aq=1:1.00
  • Default : Yes
  • Forced : No
  • Audio #1
  • ID : 2
  • Format : DTS
  • Format/Info : Digital Theater Systems
  • Codec ID : A_DTS
  • Duration : 57 min 45 s
  • Bit rate mode : Constant
  • Bit rate : 1 509 kb/s
  • Channel(s) : 2 channels
  • Channel layout : L R
  • Sampling rate : 48.0 kHz
  • Frame rate : 93.750 FPS (512 SPF)
  • Bit depth : 24 bits
  • Compression mode : Lossy
  • Stream size : 623 MiB (12%)
  • Title : DTS-2.0 英语
  • Language : English
  • Default : Yes
  • Forced : No
  • Audio #2
  • ID : 4
  • Format : DTS
  • Format/Info : Digital Theater Systems
  • Codec ID : A_DTS
  • Duration : 57 min 44 s
  • Bit rate mode : Constant
  • Bit rate : 1 509 kb/s
  • Channel(s) : 6 channels
  • Channel layout : C L R Ls Rs LFE
  • Sampling rate : 48.0 kHz
  • Frame rate : 93.750 FPS (512 SPF)
  • Bit depth : 16 bits
  • Compression mode : Lossy
  • Stream size : 623 MiB (12%)
  • Title : 腾讯国语
  • Language : Chinese
  • Default : No
  • Forced : No
  • Text #1
  • ID : 3
  • Format : VobSub
  • Muxing mode : zlib
  • Codec ID : S_VOBSUB
  • Codec ID/Info : Picture based subtitle format used on DVDs
  • Duration : 56 min 57 s
  • Bit rate : 6 198 b/s
  • Count of elements : 393
  • Stream size : 2.53 MiB (0%)
  • Title : 原始英文
  • Language : English
  • Default : Yes
  • Forced : No
  • Text #2
  • ID : 5
  • Format : ASS
  • Codec ID : S_TEXT/ASS
  • Codec ID/Info : Advanced Sub Station Alpha
  • Duration : 57 min 17 s
  • Bit rate : 70 b/s
  • Count of elements : 427
  • Compression mode : Lossless
  • Stream size : 29.7 KiB (0%)
  • Title : 简体特效
  • Language : Chinese
  • Default : No
  • Forced : No
  • Text #3
  • ID : 6
  • Format : ASS
  • Codec ID : S_TEXT/ASS
  • Codec ID/Info : Advanced Sub Station Alpha
  • Duration : 57 min 17 s
  • Bit rate : 70 b/s
  • Count of elements : 427
  • Compression mode : Lossless
  • Stream size : 29.7 KiB (0%)
  • Title : 繁体特效
  • Language : Chinese
  • Default : No
  • Forced : No
  • Text #4
  • ID : 7
  • Format : ASS
  • Codec ID : S_TEXT/ASS
  • Codec ID/Info : Advanced Sub Station Alpha
  • Duration : 57 min 17 s
  • Bit rate : 145 b/s
  • Count of elements : 427
  • Compression mode : Lossless
  • Stream size : 61.0 KiB (0%)
  • Title : 简英特效
  • Language : Chinese
  • Default : No
  • Forced : No
  • Text #5
  • ID : 8
  • Format : ASS
  • Codec ID : S_TEXT/ASS
  • Codec ID/Info : Advanced Sub Station Alpha
  • Duration : 57 min 17 s
  • Bit rate : 145 b/s
  • Count of elements : 427
  • Compression mode : Lossless
  • Stream size : 61.0 KiB (0%)
  • Title : 繁英特效
  • Language : Chinese
  • Default : No
  • Forced : No
  • Menu
  • 00:00:00.000 : en:Chapter 01
  • 00:12:50.800 : en:Chapter 02
  • 00:22:17.880 : en:Chapter 03
  • 00:33:01.680 : en:Chapter 04
  • 00:39:53.480 : en:Chapter 05
  • 00:48:09.000 : en:Chapter 06

复制代码

精彩剧照








蓝光高清网提示您  点击下方附件名称  马上开始下载







温馨提示:
本站资源优先使用迅雷下载,迅雷会员下载,速度基本可以跑满宽带
如果遇到无资源或者版权问题无法下载,推荐使用115网盘离线下载(点击查看115网盘离线下载教程

  • 该资源需要您回复以后 刷新网页进行下载操作

  • 1、BBC:[从太空看地球][全肆集].DVB国语.简繁双语特效.torrent 100KB 已下载 11 次

加入蓝光高清网VIP会员  无限制下载本站所有资源---点此加入

资源下载、资源播放、字幕使用、无法下载等常见问题---点这里

回复

使用道具 举报

精彩评论7

幽幽高手 发表于 2019-9-29 08:43:20 | 显示全部楼层

收藏了  谢谢

加入蓝光高清网VIP会员  无限制下载本站所有资源---点此加入

资源下载、资源播放、字幕使用、无法下载等常见问题---点这里

回复

使用道具 举报

小狗皮 发表于 2019-10-26 11:22:33 | 显示全部楼层
还没看过,感觉不错的样子,有人看过吗,好看吗

加入蓝光高清网VIP会员  无限制下载本站所有资源---点此加入

资源下载、资源播放、字幕使用、无法下载等常见问题---点这里

回复

使用道具 举报

murui 发表于 2019-10-27 09:46:30 | 显示全部楼层
好片,感谢分享!

加入蓝光高清网VIP会员  无限制下载本站所有资源---点此加入

资源下载、资源播放、字幕使用、无法下载等常见问题---点这里

回复

使用道具 举报

做一个煎饼需要 发表于 2019-11-22 19:53:32 | 显示全部楼层
BBC:[从太空看地球][全肆集].DVB国语.简繁双语特效.torrent

加入蓝光高清网VIP会员  无限制下载本站所有资源---点此加入

资源下载、资源播放、字幕使用、无法下载等常见问题---点这里

回复

使用道具 举报

木子文 发表于 2019-11-23 20:41:12 | 显示全部楼层
感谢楼主分享,求下载

加入蓝光高清网VIP会员  无限制下载本站所有资源---点此加入

资源下载、资源播放、字幕使用、无法下载等常见问题---点这里

回复

使用道具 举报

WXCB 发表于 2019-12-6 11:53:45 | 显示全部楼层
1111111111111111

加入蓝光高清网VIP会员  无限制下载本站所有资源---点此加入

资源下载、资源播放、字幕使用、无法下载等常见问题---点这里

回复

使用道具 举报

WXCB 发表于 7 天前 | 显示全部楼层
楼主发贴辛苦了,谢谢楼主分享!

加入蓝光高清网VIP会员  无限制下载本站所有资源---点此加入

资源下载、资源播放、字幕使用、无法下载等常见问题---点这里

回复

使用道具 举报

懒得打字嘛,点击右侧快捷回复
高级模式
B Color Image Link Quote Code Smilies 上传

本版积分规则

关注0

粉丝0

帖子295

发布主题
最新电影 论坛
本期活动
联系我们
点击这里联系客服

服务时间:
周一到周日8:00-23:30

  • 打开微信扫一扫
    关注公众号

  • 手机QQ扫一扫
    添加客服

Archiver手机版蓝光高清网 ( 渝ICP备18006373号-2 )|网站地图

Powered by Discuz! X3.4  © 2001-2013 Comsenz Inc.