[科幻] 钢铁侠/钢铁人 Iron.Man.2008.REMASTERED.1080p.BluRay.x264.DTS-HD.MA.7.1-SWTYBLZ 18.08GB

[复制链接]
蓝鸟VIP会员 永久VIP 发表于 2019-8-10 21:51:52 | 显示全部楼层 |阅读模式 打印 上一主题 下一主题

马上注册,轻松下载,海量资源,让你轻松玩转社区。

您需要 登录 才可以下载或查看,没有帐号?立即注册

x
钢铁侠/钢铁人 Iron.Man.2008.REMASTERED.1080p.BluRay.x264.DTS-HD.MA.7.1-SWTYBLZ 18.08GB-1.png


译  名 钢铁侠 / 钢铁人(台) / 铁人 / 铁甲奇侠(港)
片  名 Iron Man
年  代 2008
产  地 美国
类  别 动作 / 科幻 / 惊悚 / 冒险
语  言 英语 / 波斯语 / 乌尔都语 / 阿拉伯语
上映日期 2008-04-14(悉尼首映) / 2008-04-30(中国大陆) / 2008-05-02(美国)
IMDb评分  7.9/10 from 873040 users
IMDb链接  http://www.imdb.com/title/tt0371746
豆瓣评分 8.2/10 from 397473 users
豆瓣链接 https://movie.douban.com/subject/1432146/
片  长 126 分钟
导  演 乔恩·费儒 Jon Favreau
编  剧 特·马库姆 Art Marcum / 马特?霍洛维 Matt Holloway / 马克·弗格斯 Mark Fergus / 霍克·奥斯比 Hawk Ostby
主  演 小罗伯特·唐尼 Robert Downey Jr.
      泰伦斯·霍华德 Terrence Howard
      格温妮斯·帕特洛 Gwyneth Paltrow
      杰夫·布里吉斯 Jeff Bridges
      莱丝莉·比伯 Leslie Bibb
      肖恩·托布  Shaun Toub
      保罗·贝坦尼 Paul Bettany
      乔恩·费儒 Jon Favreau
      克拉克·格雷格 Clark Gregg


标  签 科幻 | 美国 | 动作 | 超级英雄 | 漫威 | marvel | 2008 | 漫画改编

简  介  

  斯塔克军火公司是美军在全球范围内第一大军火供应商,其新任掌门人托尼?斯塔克(小罗伯特·唐尼 Robert Downey Jr. 饰)风流倜傥,天资聪颖。他与公司元老俄巴迪亚?斯坦(杰夫·布里吉斯 Jeff Bridges 饰)合作无间,共同将斯塔克公司的业务推向顶峰。现 实生活中的托尼热衷收集名贵跑车,搞点儿发明创造,当然露水姻缘更不可少。所幸他身边有维吉尼亚?波茨(格温妮斯·帕特洛 Gwyneth Paltrow 饰)这样的好助手细心打理一切,才让他能自由自在过着贵公子的生活。
在前往中东为军方展示新型武器的途中,托尼一众遭到恐怖分子袭击。他被弹片击中险些丧命,在英森博士的帮助下,托尼体内移植了一颗核动力的人工心脏。恐怖分子要求托尼制造强大的杀伤性武器,他和英森虚与委蛇,暗中制造了一套由聚变能源驱动的钢铁盔甲。穿上盔甲托尼大闹恐怖分子的基地,回到美国后又对其进行了改进。却不知,接下来有更为黑暗的阴谋等着他……

获奖情况  

  第81届奥斯卡金像奖(2009)
  最佳视觉效果(提名) 约翰·尼尔森 / Ben Snow / 丹尼尔·萨迪克 / Shane Mahan
  最佳音效剪辑(提名) Frank E. Eulner / 克里斯托弗·博伊斯

  第18届MTV电影奖(2009)
  MTV电影奖 年度电影(提名)
  MTV电影奖 最佳男演员(提名) 小罗伯特·唐尼

  第17届MTV电影奖(2008)
  MTV电影奖 迄今最佳暑期电影

  第9届美国电影学会奖(2008)
  年度佳片



  • Video
  • ID                                       : 1
  • Format                                   : AVC
  • Format/Info                              : Advanced Video Codec
  • Format profile                           : <a href="/cdn-cgi/l/email-protection" class="__cf_email__" data-cfemail="81c9e8e6e9c1cdb5afb0">[email protected]</a>
  • Format settings                          : CABAC / 5 Ref Frames
  • Format settings, CABAC                   : Yes
  • Format settings, Reference frames        : 5 frames
  • Codec ID                                 : V_MPEG4/ISO/AVC
  • Duration                                 : 2 h 6 min
  • Bit rate                                 : 16.1 Mb/s
  • Width                                    : 1 920 pixels
  • Height                                   : 800 pixels
  • Display aspect ratio                     : 2.40:1
  • Frame rate mode                          : Constant
  • Frame rate                               : 23.976 (24000/1001) FPS
  • Color space                              : YUV
  • Chroma subsampling                       : 4:2:0
  • Bit depth                                : 8 bits
  • Scan type                                : Progressive
  • Bits/(Pixel*Frame)                       : 0.437
  • Stream size                              : 14.2 GiB (78%)
  • Title                                    : Iron.Man.2008.REMASTERED.1080p.BluRay.x264.DTS-HD.MA.7.1-SWTYBLZ
  • Writing library                          : x264 core 157 r2935 545de2f
  • Encoding settings                        : cabac=1 / ref=5 / deblock=1:-1:-1 / analyse=0x3:0x133 / me=umh / subme=10 / psy=1 / psy_rd=1.00:0.15 / mixed_ref=1 / me_range=48 / chroma_me=1 / trellis=2 / 8x8dct=1 / cqm=0 / deadzone=21,11 / fast_pskip=1 / chroma_qp_offset=-3 / threads=25 / lookahead_threads=4 / sliced_threads=0 / nr=0 / decimate=0 / interlaced=0 / bluray_compat=0 / constrained_intra=0 / bframes=8 / b_pyramid=2 / b_adapt=2 / b_bias=0 / direct=3 / weightb=1 / open_gop=0 / weightp=2 / keyint=250 / keyint_min=23 / scenecut=40 / intra_refresh=0 / rc_lookahead=60 / rc=crf / mbtree=1 / crf=13.0 / qcomp=0.60 / qpmin=0 / qpmax=69 / qpstep=4 / ip_ratio=1.40 / aq=1:1.00
  • Default                                  : Yes
  • Forced                                   : No
  • Audio
  • ID                                       : 2
  • Format                                   : DTS XLL
  • Format/Info                              : Digital Theater Systems
  • Commercial name                          : DTS-HD Master Audio
  • Codec ID                                 : A_DTS
  • Duration                                 : 2 h 6 min
  • Bit rate mode                            : Variable
  • Bit rate                                 : 4 368 kb/s
  • Channel(s)                               : 8 channels
  • Channel layout                           : C L R LFE Lb Rb Lss Rss
  • Sampling rate                            : 48.0 kHz
  • Frame rate                               : 93.750 FPS (512 SPF)
  • Bit depth                                : 24 bits
  • Compression mode                         : Lossless
  • Stream size                              : 3.84 GiB (21%)
  • Title                                    : Iron.Man.2008.REMASTERED.1080p.BluRay.x264.DTS-HD.MA.7.1-SWTYBLZ
  • Language                                 : English
  • Default                                  : No
  • Forced                                   : No
  • Text #1
  • ID                                       : 3
  • Format                                   : UTF-8
  • Codec ID                                 : S_TEXT/UTF8
  • Codec ID/Info                            : UTF-8 Plain Text
  • Duration                                 : 1 h 3 min
  • Bit rate                                 : 1 b/s
  • Count of elements                        : 38
  • Stream size                              : 750 Bytes (0%)
  • Title                                    : English-FORCED-SRT
  • Language                                 : English
  • Default                                  : Yes
  • Forced                                   : Yes
  • Text #2
  • ID                                       : 4
  • Format                                   : UTF-8
  • Codec ID                                 : S_TEXT/UTF8
  • Codec ID/Info                            : UTF-8 Plain Text
  • Duration                                 : 2 h 4 min
  • Bit rate                                 : 58 b/s
  • Count of elements                        : 1357
  • Stream size                              : 53.1 KiB (0%)
  • Title                                    : English-SRT
  • Language                                 : English
  • Default                                  : No
  • Forced                                   : No
  • Text #3
  • ID                                       : 5
  • Format                                   : PGS
  • Muxing mode                              : zlib
  • Codec ID                                 : S_HDMV/PGS
  • Codec ID/Info                            : Picture based subtitle format used on BDs/HD-DVDs
  • Duration                                 : 1 h 3 min
  • Bit rate                                 : 729 b/s
  • Count of elements                        : 73
  • Stream size                              : 339 KiB (0%)
  • Title                                    : English-FORCED-PGS
  • Language                                 : English
  • Default                                  : No
  • Forced                                   : No
  • Text #4
  • ID                                       : 6
  • Format                                   : PGS
  • Muxing mode                              : zlib
  • Codec ID                                 : S_HDMV/PGS
  • Codec ID/Info                            : Picture based subtitle format used on BDs/HD-DVDs
  • Duration                                 : 2 h 4 min
  • Bit rate                                 : 33.9 kb/s
  • Count of elements                        : 2678
  • Stream size                              : 30.1 MiB (0%)
  • Title                                    : English-PGS
  • Language                                 : English
  • Default                                  : No
  • Forced                                   : No
  • Text #5
  • ID                                       : 7
  • Format                                   : PGS
  • Muxing mode                              : zlib
  • Codec ID                                 : S_HDMV/PGS
  • Codec ID/Info                            : Picture based subtitle format used on BDs/HD-DVDs
  • Duration                                 : 2 h 4 min
  • Bit rate                                 : 44.7 kb/s
  • Count of elements                        : 2999
  • Stream size                              : 39.9 MiB (0%)
  • Title                                    : English-PGS
  • Language                                 : English
  • Default                                  : No
  • Forced                                   : No
  • Text #6
  • ID                                       : 8
  • Format                                   : PGS
  • Muxing mode                              : zlib
  • Codec ID                                 : S_HDMV/PGS
  • Codec ID/Info                            : Picture based subtitle format used on BDs/HD-DVDs
  • Duration                                 : 2 h 4 min
  • Bit rate                                 : 38.1 kb/s
  • Count of elements                        : 2685
  • Stream size                              : 34.0 MiB (0%)
  • Title                                    : French-PGS
  • Language                                 : French
  • Default                                  : No
  • Forced                                   : No
  • Text #7
  • ID                                       : 9
  • Format                                   : PGS
  • Muxing mode                              : zlib
  • Codec ID                                 : S_HDMV/PGS
  • Codec ID/Info                            : Picture based subtitle format used on BDs/HD-DVDs
  • Duration                                 : 2 h 4 min
  • Bit rate                                 : 36.5 kb/s
  • Count of elements                        : 2689
  • Stream size                              : 32.6 MiB (0%)
  • Title                                    : Italian-PGS
  • Language                                 : Italian
  • Default                                  : No
  • Forced                                   : No
  • Text #8
  • ID                                       : 10
  • Format                                   : PGS
  • Muxing mode                              : zlib
  • Codec ID                                 : S_HDMV/PGS
  • Codec ID/Info                            : Picture based subtitle format used on BDs/HD-DVDs
  • Duration                                 : 2 h 4 min
  • Bit rate                                 : 28.5 kb/s
  • Count of elements                        : 2529
  • Stream size                              : 25.4 MiB (0%)
  • Title                                    : Norwegian-PGS
  • Language                                 : Norwegian
  • Default                                  : No
  • Forced                                   : No
  • Text #9
  • ID                                       : 11
  • Format                                   : PGS
  • Muxing mode                              : zlib
  • Codec ID                                 : S_HDMV/PGS
  • Codec ID/Info                            : Picture based subtitle format used on BDs/HD-DVDs
  • Duration                                 : 2 h 4 min
  • Bit rate                                 : 33.4 kb/s
  • Count of elements                        : 2569
  • Stream size                              : 29.8 MiB (0%)
  • Title                                    : Swedish-PGS
  • Language                                 : Swedish
  • Default                                  : No
  • Forced                                   : No
  • Menu
  • 00:00:00.000                             : en:Chapter 01
  • 00:09:04.169                             : en:Chapter 02
  • 00:17:58.577                             : en:Chapter 03
  • 00:26:47.940                             : en:Chapter 04
  • 00:34:59.848                             : en:Chapter 05
  • 00:43:13.257                             : en:Chapter 06
  • 00:52:36.487                             : en:Chapter 07
  • 00:59:22.642                             : en:Chapter 08
  • 01:07:30.421                             : en:Chapter 09
  • 01:11:42.298                             : en:Chapter 10
  • 01:18:29.204                             : en:Chapter 11
  • 01:24:38.573                             : en:Chapter 12
  • 01:34:58.109                             : en:Chapter 13
  • 01:44:27.344                             : en:Chapter 14
  • 01:53:29.469                             : en:Chapter 15

复制代码



精彩剧照


钢铁侠/钢铁人 Iron.Man.2008.REMASTERED.1080p.BluRay.x264.DTS-HD.MA.7.1-SWTYBLZ 18.08GB-2.png 钢铁侠/钢铁人 Iron.Man.2008.REMASTERED.1080p.BluRay.x264.DTS-HD.MA.7.1-SWTYBLZ 18.08GB-3.png 钢铁侠/钢铁人 Iron.Man.2008.REMASTERED.1080p.BluRay.x264.DTS-HD.MA.7.1-SWTYBLZ 18.08GB-4.png


蓝光高清网提示您  点击下方附件名称  马上开始下载

Iron.Man.2008.REMASTERED.1080p.BluRay.x264.DTS-HD.MA.7.1-SWTYBLZ.torrent (90.94 KB, 下载次数: 0)
限时活动!!本月底截止,仅需9.9元/月加入VIP会员即可随心下载本站所有资源---点此了解
资源下载、资源播放、字幕使用、无法下载等常见问题---点这里
回复

使用道具 举报

懒得打字嘛,点击右侧快捷回复
您需要登录后才可以回帖 登录 | 立即注册

本版积分规则

关注0

粉丝0

帖子10848

发布主题
最新电影 论坛
广告位
Empty Ads

Archiver手机版蓝光高清网 ( 渝ICP备18006373号-2 )|网站地图

Powered by Discuz! X3.4  © 2001-2013 Comsenz Inc.