[剧情] 欲望之翼 The.Key.1983.1080p.BluRay.X264-SPLiTSViLLE 7.65GB

[复制链接]
蓝鸟VIP会员 永久VIP 发表于 2019-8-10 21:52:24 | 显示全部楼层 |阅读模式 打印 上一主题 下一主题

马上注册,轻松下载,海量资源,让你轻松玩转社区。

您需要 登录 才可以下载或查看,没有帐号?立即注册

x



译  名 欲望之翼 / The Key / 秘密 / 键
片  名 La Chiave
年  代 1983
产  地 意大利
类  别 剧情 / 情色
语  言 意大利语
上映日期 1983-10-19
IMDb评分  5.5/10 from 2241 users
IMDb链接  http://www.imdb.com/title/tt0085328
豆瓣评分 6.3/10 from 1192 users
豆瓣链接 https://movie.douban.com/subject/1466261/
片  长 116 分钟
导  演 丁度·巴拉斯 Tinto Brass
编  剧 谷崎润一郎 Junichir? Tanizaki / 丁度·巴拉斯 Tinto Brass
主  演 弗兰克·芬莱 Frank Finlay
       斯蒂芬尼娅·桑德雷莉 Stefania Sandrelli


标  签 丁度·巴拉斯 | 情色 | 意大利 | 情色片 | 意大利电影 | 电影 | 1983 | TintoBrass

简  介  

  学者(弗兰克·芬莱 Frank Finlay 饰)娶了一个和自己年龄相差甚大的美艳妻子(斯蒂芬尼娅·桑德雷莉 Stefania Sandrelli 饰),因为担心自己无法满足年轻的妻子,学者感到十分的困扰。长久以来,学者有着记日记的习惯,在日记里,学者详细记录了自己和妻子共享鱼水之欢的过程,甚至意淫起了妻子与女婿的奸情,从中获得嫉妒带来的快感。
  很快,学者的日记被妻子发现,在羞愧和愤怒中,妻子决定用实际行动来报复丈夫的愚蠢。于是,一个家庭里,两个人,两本日记,记载了人性里的欲望和黑暗。然而,事情并没有就此结束,在欲望的漩涡里越陷越深的学者竟然开始积极的撮合起了妻子和女婿,不仅将妻子大方的献给女婿,并且为两人的私会制造各种时机。
  • Video
  • ID                                       : 1
  • Format                                   : AVC
  • Format/Info                              : Advanced Video Codec
  • Format profile                           : <a href="/cdn-cgi/l/email-protection" class="__cf_email__" data-cfemail="723a1b151a323e465c43">[email protected]</a>
  • Format settings                          : CABAC / 4 Ref Frames
  • Format settings, CABAC                   : Yes
  • Format settings, Reference frames        : 4 frames
  • Codec ID                                 : V_MPEG4/ISO/AVC
  • Duration                                 : 1 h 50 min
  • Bit rate                                 : 8 596 kb/s
  • Width                                    : 1 920 pixels
  • Height                                   : 1 080 pixels
  • Display aspect ratio                     : 16:9
  • Frame rate mode                          : Constant
  • Frame rate                               : 23.976 (23976/1000) FPS
  • Color space                              : YUV
  • Chroma subsampling                       : 4:2:0
  • Bit depth                                : 8 bits
  • Scan type                                : Progressive
  • Bits/(Pixel*Frame)                       : 0.173
  • Stream size                              : 6.50 GiB (85%)
  • Writing library                          : x264 core 140 r2377 1ca7bb9
  • Encoding settings                        : cabac=1 / ref=4 / deblock=1:0:0 / analyse=0x3:0x133 / me=umh / subme=7 / psy=1 / psy_rd=1.00:0.00 / mixed_ref=1 / me_range=16 / chroma_me=1 / trellis=1 / 8x8dct=1 / cqm=0 / deadzone=21,11 / fast_pskip=0 / chroma_qp_offset=-2 / threads=12 / lookahead_threads=2 / sliced_threads=0 / nr=0 / decimate=1 / interlaced=0 / bluray_compat=0 / constrained_intra=0 / bframes=3 / b_pyramid=2 / b_adapt=2 / b_bias=0 / direct=3 / weightb=1 / open_gop=0 / weightp=2 / keyint=250 / keyint_min=23 / scenecut=40 / intra_refresh=0 / rc_lookahead=50 / rc=2pass / mbtree=1 / bitrate=8596 / ratetol=1.0 / qcomp=0.60 / qpmin=0 / qpmax=69 / qpstep=4 / cplxblur=20.0 / qblur=0.5 / ip_ratio=1.40 / aq=1:1.00
  • Language                                 : English
  • Default                                  : Yes
  • Forced                                   : No
  • Audio #1
  • ID                                       : 2
  • Format                                   : AC-3
  • Format/Info                              : Audio Coding 3
  • Commercial name                          : Dolby Digital
  • Codec ID                                 : A_AC3
  • Duration                                 : 1 h 50 min
  • Bit rate mode                            : Constant
  • Bit rate                                 : 640 kb/s
  • Channel(s)                               : 2 channels
  • Channel layout                           : L R
  • Sampling rate                            : 48.0 kHz
  • Frame rate                               : 31.250 FPS (1536 SPF)
  • Bit depth                                : 16 bits
  • Compression mode                         : Lossy
  • Stream size                              : 507 MiB (6%)
  • Language                                 : Italian
  • Service kind                             : Complete Main
  • Default                                  : Yes
  • Forced                                   : No
  • Audio #2
  • ID                                       : 3
  • Format                                   : AC-3
  • Format/Info                              : Audio Coding 3
  • Commercial name                          : Dolby Digital
  • Codec ID                                 : A_AC3
  • Duration                                 : 1 h 50 min
  • Bit rate mode                            : Constant
  • Bit rate                                 : 640 kb/s
  • Channel(s)                               : 2 channels
  • Channel layout                           : L R
  • Sampling rate                            : 48.0 kHz
  • Frame rate                               : 31.250 FPS (1536 SPF)
  • Bit depth                                : 16 bits
  • Compression mode                         : Lossy
  • Stream size                              : 507 MiB (6%)
  • Language                                 : English
  • Service kind                             : Complete Main
  • Default                                  : No
  • Forced                                   : No
  • Text
  • ID                                       : 4
  • Format                                   : UTF-8
  • Codec ID                                 : S_TEXT/UTF8
  • Codec ID/Info                            : UTF-8 Plain Text
  • Language                                 : English
  • Default                                  : Yes
  • Forced                                   : No
  • Menu
  • 00:00:00.000                             : en:00:00:00.000
  • 00:10:44.853                             : en:00:10:44.853
  • 00:20:00.408                             : en:00:20:00.408
  • 00:26:46.438                             : en:00:26:46.438
  • 00:35:03.977                             : en:00:35:03.977
  • 00:44:49.645                             : en:00:44:49.645
  • 00:54:24.261                             : en:00:54:24.261
  • 01:02:34.250                             : en:01:02:34.250
  • 01:11:01.549                             : en:01:11:01.549
  • 01:20:17.646                             : en:01:20:17.646
  • 01:29:30.657                             : en:01:29:30.657
  • 01:39:51.402                             : en:01:39:51.402

复制代码



精彩剧照





蓝光高清网提示您  点击下方附件名称  马上开始下载





  • 该资源需要您回复以后 刷新网页进行下载操作

  • 1、The.Key.1983.1080p.BluRay.X264-SPLiTSViLLE.torrent 39KB 已下载 1 次

加入蓝光高清网VIP会员  无限制下载本站所有资源---点此加入

资源下载、资源播放、字幕使用、无法下载等常见问题---点这里

回复

使用道具 举报

懒得打字嘛,点击右侧快捷回复
高级模式
B Color Image Link Quote Code Smilies 上传

本版积分规则

关注0

粉丝0

帖子69429

发布主题
最新电影 论坛
广告位
联系我们
点击这里联系客服

服务时间:
周一到周日8:00-23:30

  • 打开微信扫一扫
    关注公众号

  • 手机QQ扫一扫
    添加客服

Archiver手机版蓝光高清网 ( 渝ICP备18006373号-2 )|网站地图

Powered by Discuz! X3.4  © 2001-2013 Comsenz Inc.