[舞台/音乐纪录片] 说唱乐的艺术 Something.From.Nothing.The.Art.Of.Rap.2012.1080p.BluRay.x264-HANDJOB 9.45GB

[复制链接]
蓝鸟VIP会员 永久VIP 发表于 2019-8-10 21:53:07 | 显示全部楼层 |阅读模式 打印 上一主题 下一主题

马上注册,轻松下载,海量资源,让你轻松玩转社区。

您需要 登录 才可以下载或查看,没有帐号?立即注册

x



译  名 说唱乐的艺术
片  名 Something from Nothing: The Art of Rap
年  代 2012
产  地 美国 / 英国
类  别 纪录片 / 音乐
语  言 英语
上映日期 2012-06-05(美国)
IMDb评分  7.2/10 from 3230 users
IMDb链接  http://www.imdb.com/title/tt2062996
豆瓣评分 8.9/10 from 610 users
豆瓣链接 https://movie.douban.com/subject/7056397/
导  演 Ice-T / Co-Director / Andy Baybutt
主  演 埃米纳姆 Eminem


标  签 纪录片 | Rap | Hip-Hop | 音乐 | 美国 | eminem | Documentary | Ice-T

简  介  

  SOMETHING FROM NOTHING: THE ART OF RAP is a feature length performance documentary film about the runaway juggernaut that is Rap music. At the wheel of this unstoppable beast is the film's director and interviewer Ice-T. Ice-T takes us on a deeply personal journey to uncover how this music of the street has grown to dominate the world. Along the way Ice-T meets some of the remarkable superstars of Rap, from Eminem to Dr Dre, to Snoop Dogg and Kanye West. He exposes the roots and history of Rap and then, through meeting most of it's most famous protagonists studies the living mechanism of the music to reveal The Art Of Rap. This film features unique performances from it's entire cast and does not use any archive material.
  • Video
  • ID                                       : 1
  • Format                                   : AVC
  • Format/Info                              : Advanced Video Codec
  • Format profile                           : <a href="/cdn-cgi/l/email-protection" class="__cf_email__" data-cfemail="eaa2838d82aaa6dec4db">[email protected]</a>
  • Format settings                          : CABAC / 4 Ref Frames
  • Format settings, CABAC                   : Yes
  • Format settings, Reference frames        : 4 frames
  • Codec ID                                 : V_MPEG4/ISO/AVC
  • Duration                                 : 1 h 51 min
  • Bit rate                                 : 11.5 Mb/s
  • Width                                    : 1 912 pixels
  • Height                                   : 1 080 pixels
  • Display aspect ratio                     : 16:9
  • Frame rate mode                          : Constant
  • Frame rate                               : 24.000 FPS
  • Color space                              : YUV
  • Chroma subsampling                       : 4:2:0
  • Bit depth                                : 8 bits
  • Scan type                                : Progressive
  • Bits/(Pixel*Frame)                       : 0.232
  • Stream size                              : 8.95 GiB (95%)
  • Writing library                          : x264 core 157 r2935 545de2f
  • Encoding settings                        : cabac=1 / ref=4 / deblock=1:-3:-3 / analyse=0x3:0x133 / me=umh / subme=10 / psy=1 / psy_rd=1.00:0.00 / mixed_ref=1 / me_range=32 / chroma_me=1 / trellis=2 / 8x8dct=1 / cqm=0 / deadzone=21,11 / fast_pskip=0 / chroma_qp_offset=-2 / threads=18 / lookahead_threads=4 / sliced_threads=0 / nr=0 / decimate=0 / interlaced=0 / bluray_compat=0 / constrained_intra=0 / bframes=16 / b_pyramid=2 / b_adapt=2 / b_bias=0 / direct=3 / weightb=1 / open_gop=0 / weightp=2 / keyint=240 / keyint_min=24 / scenecut=40 / intra_refresh=0 / rc_lookahead=60 / rc=crf / mbtree=0 / crf=20.2 / qcomp=0.60 / qpmin=0 / qpmax=69 / qpstep=4 / vbv_maxrate=62500 / vbv_bufsize=78125 / crf_max=0.0 / nal_hrd=none / filler=0 / ip_ratio=1.40 / pb_ratio=1.30 / aq=2:1.00
  • Default                                  : Yes
  • Forced                                   : No
  • Color range                              : Limited
  • Color primaries                          : BT.709
  • Transfer characteristics                 : BT.709
  • Matrix coefficients                      : BT.709
  • Audio
  • ID                                       : 2
  • Format                                   : AC-3
  • Format/Info                              : Audio Coding 3
  • Commercial name                          : Dolby Digital
  • Codec ID                                 : A_AC3
  • Duration                                 : 1 h 51 min
  • Bit rate mode                            : Constant
  • Bit rate                                 : 640 kb/s
  • Channel(s)                               : 6 channels
  • Channel layout                           : L R C LFE Ls Rs
  • Sampling rate                            : 48.0 kHz
  • Frame rate                               : 31.250 FPS (1536 SPF)
  • Bit depth                                : 16 bits
  • Compression mode                         : Lossy
  • Stream size                              : 510 MiB (5%)
  • Language                                 : English
  • Service kind                             : Complete Main
  • Default                                  : Yes
  • Forced                                   : No

复制代码



精彩剧照





蓝光高清网提示您  点击下方附件名称  马上开始下载





  • 该资源需要您回复以后 刷新网页进行下载操作

  • 1、Something.From.Nothing.The.Art.Of.Rap.2012.1080p.BluRay.x264-HANDJOB.torrent 48KB 已下载 0 次

加入蓝光高清网VIP会员  无限制下载本站所有资源---点此加入

资源下载、资源播放、字幕使用、无法下载等常见问题---点这里

回复

使用道具 举报

精彩评论7

mtv1987 发表于 2019-8-11 06:15:11 | 显示全部楼层
lkjlsdfadfsfasasdfasfa

加入蓝光高清网VIP会员  无限制下载本站所有资源---点此加入

资源下载、资源播放、字幕使用、无法下载等常见问题---点这里

回复

使用道具 举报

lixuejiang16 发表于 2019-8-11 06:30:18 | 显示全部楼层
相当不错,感谢无私分享精神!

加入蓝光高清网VIP会员  无限制下载本站所有资源---点此加入

资源下载、资源播放、字幕使用、无法下载等常见问题---点这里

回复

使用道具 举报

Falou 发表于 2019-8-11 06:35:19 | 显示全部楼层
好好 学习了 确实不错

加入蓝光高清网VIP会员  无限制下载本站所有资源---点此加入

资源下载、资源播放、字幕使用、无法下载等常见问题---点这里

回复

使用道具 举报

yfluo 发表于 2019-8-11 08:17:43 | 显示全部楼层
终于找到了  谢谢分享

加入蓝光高清网VIP会员  无限制下载本站所有资源---点此加入

资源下载、资源播放、字幕使用、无法下载等常见问题---点这里

回复

使用道具 举报

恋≮网≯冰雪 发表于 2019-8-11 09:04:20 | 显示全部楼层
楼主,大恩不言谢了!

加入蓝光高清网VIP会员  无限制下载本站所有资源---点此加入

资源下载、资源播放、字幕使用、无法下载等常见问题---点这里

回复

使用道具 举报

狂人之家.叶子 发表于 2019-8-11 09:42:21 | 显示全部楼层
哈哈 谢谢 谢谢

加入蓝光高清网VIP会员  无限制下载本站所有资源---点此加入

资源下载、资源播放、字幕使用、无法下载等常见问题---点这里

回复

使用道具 举报

圣战天尊 发表于 2019-8-11 09:47:24 | 显示全部楼层
楼主,我太崇拜你了!

加入蓝光高清网VIP会员  无限制下载本站所有资源---点此加入

资源下载、资源播放、字幕使用、无法下载等常见问题---点这里

回复

使用道具 举报

懒得打字嘛,点击右侧快捷回复
高级模式
B Color Image Link Quote Code Smilies 上传

本版积分规则

关注0

粉丝0

帖子66311

发布主题
最新电影 论坛
广告位
联系我们
点击这里联系客服

服务时间:
周一到周日8:00-23:30

  • 打开微信扫一扫
    关注公众号

  • 手机QQ扫一扫
    添加客服

Archiver手机版蓝光高清网 ( 渝ICP备18006373号-2 )|网站地图

Powered by Discuz! X3.4  © 2001-2013 Comsenz Inc.