[舞台/音乐纪录片] 古旅玛尔 Gurrumul.2017.1080p.BluRay.x264-HANDJOB 7.34GB

[复制链接]
蓝鸟VIP会员 永久VIP 发表于 2019-8-10 21:54:35 | 显示全部楼层 |阅读模式 打印 上一主题 下一主题

马上注册,轻松下载,海量资源,让你轻松玩转社区。

您需要 登录 才可以下载或查看,没有帐号?立即注册

x



译  名 古旅玛尔
片  名 Gurrumul
年  代 2018
产  地 澳大利亚 Australia
类  别 纪录片
语  言 英语
上映日期 2018-04-26(澳大利亚)
IMDb评分  8.1/10 from 157 users
IMDb链接  http://www.imdb.com/title/tt7737502
豆瓣评分 0/10 from 0 users
豆瓣链接 https://movie.douban.com/subject/28434419/
片  长 97分钟
导  演 Paul Damien Williams
主  演 Geoffrey Gurrumul Yunupingu


标  签 纪录片 | 澳大利亚 | documentary | Indigenous | Australia | 音乐 | 温情 | 感人

简  介  

  Gurrumul is a 2018 Australian documentary film about the life of Geoffrey Gurrumul Yunupingu. the film premiered at the Berlin Film Festival in February 2018 to positive reviews. The film is set for an Australian release on 26 April 2018.
  Celebrated by audiences at home and abroad, indigenous artist Geoffrey Gurrumul Yunupingu was one of the most important and acclaimed voices to ever come out of Australia. Blind from birth, he found purpose and meaning through songs and music inspired by his community and country on Elcho Island in far North East Arnhem Land. Living a traditional Yolngu life, his breakthrough album Gurrumul brought him to a crossroads as audiences and artists around the world began to embrace his music.
  Reference:
  https://en.wikipedia.org/wiki/Gurrumul_(film)
  • Video
  • ID                                       : 1
  • Format                                   : AVC
  • Format/Info                              : Advanced Video Codec
  • Format profile                           : <a href="/cdn-cgi/l/email-protection" class="__cf_email__" data-cfemail="b5fddcd2ddf5f9819b84">[email protected]</a>
  • Format settings                          : CABAC / 5 Ref Frames
  • Format settings, CABAC                   : Yes
  • Format settings, Reference frames        : 5 frames
  • Codec ID                                 : V_MPEG4/ISO/AVC
  • Duration                                 : 1 h 36 min
  • Bit rate                                 : 10.3 Mb/s
  • Width                                    : 1 920 pixels
  • Height                                   : 804 pixels
  • Display aspect ratio                     : 2.40:1
  • Frame rate mode                          : Constant
  • Frame rate                               : 25.000 FPS
  • Color space                              : YUV
  • Chroma subsampling                       : 4:2:0
  • Bit depth                                : 8 bits
  • Scan type                                : Progressive
  • Bits/(Pixel*Frame)                       : 0.266
  • Stream size                              : 6.91 GiB (94%)
  • Writing library                          : x264 core 157 r2935 545de2f
  • Encoding settings                        : cabac=1 / ref=5 / deblock=1:-3:-3 / analyse=0x3:0x133 / me=umh / subme=10 / psy=1 / psy_rd=1.00:0.00 / mixed_ref=1 / me_range=32 / chroma_me=1 / trellis=2 / 8x8dct=1 / cqm=0 / deadzone=21,11 / fast_pskip=0 / chroma_qp_offset=-2 / threads=25 / lookahead_threads=6 / sliced_threads=0 / nr=0 / decimate=0 / interlaced=0 / bluray_compat=0 / constrained_intra=0 / bframes=16 / b_pyramid=2 / b_adapt=2 / b_bias=0 / direct=3 / weightb=1 / open_gop=0 / weightp=2 / keyint=250 / keyint_min=25 / scenecut=40 / intra_refresh=0 / rc_lookahead=60 / rc=crf / mbtree=0 / crf=17.5 / qcomp=0.60 / qpmin=0 / qpmax=69 / qpstep=4 / vbv_maxrate=62500 / vbv_bufsize=78125 / crf_max=0.0 / nal_hrd=none / filler=0 / ip_ratio=1.40 / pb_ratio=1.30 / aq=2:1.00
  • Default                                  : Yes
  • Forced                                   : No
  • Color range                              : Limited
  • Color primaries                          : BT.709
  • Transfer characteristics                 : BT.709
  • Matrix coefficients                      : BT.709
  • Audio
  • ID                                       : 2
  • Format                                   : AC-3
  • Format/Info                              : Audio Coding 3
  • Commercial name                          : Dolby Digital
  • Codec ID                                 : A_AC3
  • Duration                                 : 1 h 36 min
  • Bit rate mode                            : Constant
  • Bit rate                                 : 640 kb/s
  • Channel(s)                               : 6 channels
  • Channel layout                           : L R C LFE Ls Rs
  • Sampling rate                            : 48.0 kHz
  • Frame rate                               : 31.250 FPS (1536 SPF)
  • Bit depth                                : 16 bits
  • Compression mode                         : Lossy
  • Stream size                              : 440 MiB (6%)
  • Language                                 : English
  • Service kind                             : Complete Main
  • Default                                  : Yes
  • Forced                                   : No
  • Text
  • ID                                       : 3
  • Format                                   : UTF-8
  • Codec ID                                 : S_TEXT/UTF8
  • Codec ID/Info                            : UTF-8 Plain Text
  • Duration                                 : 1 h 34 min
  • Bit rate                                 : 44 b/s
  • Count of elements                        : 884
  • Stream size                              : 30.9 KiB (0%)
  • Language                                 : English
  • Default                                  : Yes
  • Forced                                   : No
  • Menu
  • 00:00:00.000                             : en:Chapter 1
  • 00:08:53.040                             : en:Chapter 2
  • 00:16:45.880                             : en:Chapter 3
  • 00:24:01.920                             : en:Chapter 4
  • 00:31:26.920                             : en:Chapter 5
  • 00:42:16.880                             : en:Chapter 6
  • 00:51:16.200                             : en:Chapter 7
  • 00:57:42.080                             : en:Chapter 8
  • 01:04:45.480                             : en:Chapter 9
  • 01:11:20.040                             : en:Chapter 10
  • 01:19:22.840                             : en:Chapter 11
  • 01:24:19.680                             : en:Chapter 12
  • 01:31:05.040                             : en:Chapter 13

复制代码



精彩剧照





蓝光高清网提示您  点击下方附件名称  马上开始下载





  • 该资源需要您回复以后 刷新网页进行下载操作

  • 1、Gurrumul.2017.1080p.BluRay.x264-HANDJOB.torrent 37KB 已下载 1 次

加入蓝光高清网VIP会员  无限制下载本站所有资源---点此加入

资源下载、资源播放、字幕使用、无法下载等常见问题---点这里

回复

使用道具 举报

精彩评论10

laoniaoren 发表于 2019-8-10 22:04:42 | 显示全部楼层
谢谢分享

加入蓝光高清网VIP会员  无限制下载本站所有资源---点此加入

资源下载、资源播放、字幕使用、无法下载等常见问题---点这里

回复

使用道具 举报

gouxong77 发表于 2019-8-10 22:46:12 | 显示全部楼层
不错,支持下楼主

加入蓝光高清网VIP会员  无限制下载本站所有资源---点此加入

资源下载、资源播放、字幕使用、无法下载等常见问题---点这里

回复

使用道具 举报

boyhu 发表于 2019-8-11 07:06:03 | 显示全部楼层
相当不错,感谢无私分享精神!

加入蓝光高清网VIP会员  无限制下载本站所有资源---点此加入

资源下载、资源播放、字幕使用、无法下载等常见问题---点这里

回复

使用道具 举报

路边草 发表于 2019-8-11 07:11:07 | 显示全部楼层
不管怎么说就是支持,感谢版主的无私付出

加入蓝光高清网VIP会员  无限制下载本站所有资源---点此加入

资源下载、资源播放、字幕使用、无法下载等常见问题---点这里

回复

使用道具 举报

hyacinthdream 发表于 2019-8-11 09:31:04 | 显示全部楼层
不管怎么说就是支持,感谢版主的无私付出

加入蓝光高清网VIP会员  无限制下载本站所有资源---点此加入

资源下载、资源播放、字幕使用、无法下载等常见问题---点这里

回复

使用道具 举报

ybbjplh 发表于 2019-8-11 10:13:10 | 显示全部楼层
谢谢楼主分享

加入蓝光高清网VIP会员  无限制下载本站所有资源---点此加入

资源下载、资源播放、字幕使用、无法下载等常见问题---点这里

回复

使用道具 举报

columbiapeter 发表于 2019-8-11 12:04:42 | 显示全部楼层
好电影 谢谢楼主分享

加入蓝光高清网VIP会员  无限制下载本站所有资源---点此加入

资源下载、资源播放、字幕使用、无法下载等常见问题---点这里

回复

使用道具 举报

lltpvccom 发表于 2019-8-11 12:35:59 | 显示全部楼层
路过,学习下

加入蓝光高清网VIP会员  无限制下载本站所有资源---点此加入

资源下载、资源播放、字幕使用、无法下载等常见问题---点这里

回复

使用道具 举报

skywater.hy 发表于 2019-8-11 12:41:05 | 显示全部楼层
好电影 收藏了

加入蓝光高清网VIP会员  无限制下载本站所有资源---点此加入

资源下载、资源播放、字幕使用、无法下载等常见问题---点这里

回复

使用道具 举报

懒得打字嘛,点击右侧快捷回复
高级模式
B Color Image Link Quote Code Smilies 上传

本版积分规则

关注0

粉丝0

帖子69468

发布主题
最新电影 论坛
本期活动
联系我们
点击这里联系客服

服务时间:
周一到周日8:00-23:30

  • 打开微信扫一扫
    关注公众号

  • 手机QQ扫一扫
    添加客服

Archiver手机版蓝光高清网 ( 渝ICP备18006373号-2 )|网站地图

Powered by Discuz! X3.4  © 2001-2013 Comsenz Inc.