[剧情] 家族的肖像 Conversation.Piece.1974.1080p.BluRay.x264.DTS-FGT 10.08GB

[复制链接]
蓝鸟VIP会员 永久VIP 发表于 2019-8-10 21:55:25 | 显示全部楼层 |阅读模式 打印 上一主题 下一主题

马上注册,轻松下载,海量资源,让你轻松玩转社区。

您需要 登录 才可以下载或查看,没有帐号?立即注册

x



译  名 家族的肖像 / Conversation Piece / 内地家族 / 家庭内部肖像
片  名 Gruppo di famiglia in un interno
年  代 1974
产  地 意大利 / 法国
类  别 剧情
语  言 意大利语 / 英语
上映日期 1974-12-10
IMDb评分  7.5/10 from 3478 users
IMDb链接  http://www.imdb.com/title/tt0071585
豆瓣评分 7.9/10 from 332 users
豆瓣链接 https://movie.douban.com/subject/1307865/
片  长 121 分钟(意大利)
导  演 卢奇诺·维斯康蒂 Luchino Visconti
编  剧 Enrico Medioli / 卢奇诺·维斯康蒂 Luchino Visconti
主  演 伯特·兰卡斯特 Burt Lancaster
       赫尔穆特·贝格 Helmut Berger
       肖瓦娜·曼加诺 Silvana Mangano


标  签 意大利 | 维斯康蒂 | LuchinoVisconti | 卢奇诺·维斯康蒂 | 意大利电影 | 1970s | Luchino_Visconti | 1974

简  介  

  维斯康提后期喜欢以贵族家庭内部的矛盾纠葛为主要题材,毕竟他自己也出生贵族家庭。本片属于这类题材,但却是他最不为人熟知的一部。他的老搭档兰开斯特扮演一个住在罗马豪华公寓里的收藏绘画的美国退休老教授,电影通过他的角度审视了一个贵族家庭内部的种种状况。该家庭搬进了艺术家的楼上,家族里充满了堕落、仇恨、妒忌等不为人知的内幕,老教授与他们产生了不可调和的矛盾,也使自己陷入疯狂和混乱之中。
  • Video
  • ID                                       : 1
  • Format                                   : AVC
  • Format/Info                              : Advanced Video Codec
  • Format profile                           : <a href="/cdn-cgi/l/email-protection" class="__cf_email__" data-cfemail="4109282629010d756f70">[email protected]</a>
  • Format settings                          : CABAC / 4 Ref Frames
  • Format settings, CABAC                   : Yes
  • Format settings, Reference frames        : 4 frames
  • Codec ID                                 : V_MPEG4/ISO/AVC
  • Duration                                 : 2 h 5 min
  • Bit rate                                 : 10 000 kb/s
  • Width                                    : 1 920 pixels
  • Height                                   : 816 pixels
  • Display aspect ratio                     : 2.35:1
  • Frame rate mode                          : Constant
  • Frame rate                               : 23.976 (24000/1001) FPS
  • Color space                              : YUV
  • Chroma subsampling                       : 4:2:0
  • Bit depth                                : 8 bits
  • Scan type                                : Progressive
  • Bits/(Pixel*Frame)                       : 0.266
  • Stream size                              : 8.80 GiB (87%)
  • Writing library                          : x264 core 142 r2479 dd79a61
  • Encoding settings                        : cabac=1 / ref=3 / deblock=1:0:0 / analyse=0x3:0x113 / me=hex / subme=7 / psy=1 / psy_rd=1.00:0.00 / mixed_ref=1 / me_range=16 / chroma_me=1 / trellis=1 / 8x8dct=1 / cqm=0 / deadzone=21,11 / fast_pskip=1 / chroma_qp_offset=-2 / threads=12 / lookahead_threads=2 / sliced_threads=0 / nr=0 / decimate=1 / interlaced=0 / bluray_compat=0 / constrained_intra=0 / bframes=3 / b_pyramid=2 / b_adapt=1 / b_bias=0 / direct=1 / weightb=1 / open_gop=0 / weightp=2 / keyint=240 / keyint_min=24 / scenecut=40 / intra_refresh=0 / rc_lookahead=40 / rc=abr / mbtree=1 / bitrate=10000 / ratetol=1.0 / qcomp=0.60 / qpmin=0 / qpmax=69 / qpstep=4 / vbv_maxrate=62500 / vbv_bufsize=78125 / nal_hrd=none / filler=0 / ip_ratio=1.40 / aq=1:1.00
  • Default                                  : Yes
  • Forced                                   : No
  • Color range                              : Limited
  • Color primaries                          : BT.709
  • Transfer characteristics                 : BT.709
  • Matrix coefficients                      : BT.709
  • Audio
  • ID                                       : 2
  • Format                                   : DTS
  • Format/Info                              : Digital Theater Systems
  • Codec ID                                 : A_DTS
  • Duration                                 : 2 h 1 min
  • Bit rate mode                            : Constant
  • Bit rate                                 : 1 509 kb/s
  • Channel(s)                               : 2 channels
  • Channel layout                           : L R
  • Sampling rate                            : 48.0 kHz
  • Frame rate                               : 93.750 FPS (512 SPF)
  • Bit depth                                : 24 bits
  • Compression mode                         : Lossy
  • Stream size                              : 1.28 GiB (13%)
  • Title                                    : Stereo
  • Language                                 : English
  • Default                                  : Yes
  • Forced                                   : No
  • Text
  • ID                                       : 3
  • Format                                   : UTF-8
  • Codec ID                                 : S_TEXT/UTF8
  • Codec ID/Info                            : UTF-8 Plain Text
  • Duration                                 : 1 h 57 min
  • Bit rate                                 : 61 b/s
  • Count of elements                        : 1367
  • Stream size                              : 53.1 KiB (0%)
  • Language                                 : English
  • Default                                  : Yes
  • Forced                                   : No
  • Menu
  • 00:00:00.000                             : :Chapter 1
  • 00:02:56.551                             : :Chapter 2
  • 00:13:18.589                             : :Chapter 3
  • 00:30:41.715                             : :Chapter 4
  • 00:46:42.800                             : :Chapter 5
  • 01:01:07.247                             : :Chapter 6
  • 01:12:50.825                             : :Chapter 7
  • 01:20:04.008                             : :Chapter 8
  • 01:27:25.699                             : :Chapter 9
  • 01:32:45.727                             : :Chapter 10
  • 01:53:19.042                             : :Chapter 11

复制代码



精彩剧照





蓝光高清网提示您  点击下方附件名称  马上开始下载





  • 该资源需要您回复以后 刷新网页进行下载操作

  • 1、Conversation.Piece.1974.1080p.BluRay.x264.DTS-FGT.torrent 51KB 已下载 0 次

加入蓝光高清网VIP会员  无限制下载本站所有资源---点此加入

资源下载、资源播放、字幕使用、无法下载等常见问题---点这里

回复

使用道具 举报

精彩评论82

野心 发表于 2019-8-10 22:20:08 | 显示全部楼层
希望蓝光高清网越来越好

加入蓝光高清网VIP会员  无限制下载本站所有资源---点此加入

资源下载、资源播放、字幕使用、无法下载等常见问题---点这里

回复

使用道具 举报

a155609 发表于 2019-8-10 22:36:09 | 显示全部楼层
学习了,谢谢分享、、、

加入蓝光高清网VIP会员  无限制下载本站所有资源---点此加入

资源下载、资源播放、字幕使用、无法下载等常见问题---点这里

回复

使用道具 举报

poonzsp 发表于 2019-8-11 06:00:00 | 显示全部楼层
希望蓝光高清网越来越好

加入蓝光高清网VIP会员  无限制下载本站所有资源---点此加入

资源下载、资源播放、字幕使用、无法下载等常见问题---点这里

回复

使用道具 举报

hezf2006 发表于 2019-8-11 08:07:28 | 显示全部楼层
sfweoeroiqwetasd!

加入蓝光高清网VIP会员  无限制下载本站所有资源---点此加入

资源下载、资源播放、字幕使用、无法下载等常见问题---点这里

回复

使用道具 举报

特开 发表于 2019-8-11 10:08:09 | 显示全部楼层
哈哈 谢谢 谢谢

加入蓝光高清网VIP会员  无限制下载本站所有资源---点此加入

资源下载、资源播放、字幕使用、无法下载等常见问题---点这里

回复

使用道具 举报

tonybaby1980@ho 发表于 2019-8-11 10:39:31 | 显示全部楼层
好网站 希望越来越好

加入蓝光高清网VIP会员  无限制下载本站所有资源---点此加入

资源下载、资源播放、字幕使用、无法下载等常见问题---点这里

回复

使用道具 举报

lotto2001 发表于 2019-8-11 12:46:08 | 显示全部楼层
谢谢分享

加入蓝光高清网VIP会员  无限制下载本站所有资源---点此加入

资源下载、资源播放、字幕使用、无法下载等常见问题---点这里

回复

使用道具 举报

kiroro86ong 发表于 2019-8-11 13:07:09 | 显示全部楼层
好资源 收藏了 谢谢分享

加入蓝光高清网VIP会员  无限制下载本站所有资源---点此加入

资源下载、资源播放、字幕使用、无法下载等常见问题---点这里

回复

使用道具 举报

chengjingpeng1 发表于 2019-8-11 13:12:10 | 显示全部楼层
刷一波高清币,嘿嘿

加入蓝光高清网VIP会员  无限制下载本站所有资源---点此加入

资源下载、资源播放、字幕使用、无法下载等常见问题---点这里

回复

使用道具 举报

懒得打字嘛,点击右侧快捷回复
高级模式
B Color Image Link Quote Code Smilies 上传

本版积分规则

关注0

粉丝0

帖子69429

发布主题
最新电影 论坛
广告位
联系我们
点击这里联系客服

服务时间:
周一到周日8:00-23:30

  • 打开微信扫一扫
    关注公众号

  • 手机QQ扫一扫
    添加客服

Archiver手机版蓝光高清网 ( 渝ICP备18006373号-2 )|网站地图

Powered by Discuz! X3.4  © 2001-2013 Comsenz Inc.