[剧情片] 服从 Obey.2018.1080p.WEB-DL.DD5.1.H264-FGT 3.32GB

[复制链接]
蓝鸟VIP会员 永久VIP 发表于 2019-8-16 23:57:29 | 显示全部楼层 |阅读模式 打印 上一主题 下一主题

马上注册,轻松下载,海量资源,让你轻松玩转社区。

您需要 登录 才可以下载或查看,没有帐号?立即注册

x


◎译  名 服从
◎片  名 服从 Obey
◎年  代 2018
◎国  家 英国
◎类  别 剧情
◎语  言 英语
◎上映日期 2018-04-22(翠贝卡电影节)
◎IMDb评分  5.8/10 from 90 users
◎IMDb链接  http://www.imdb.com/title/tt6145764/
◎豆瓣评分 目前无人评价
◎豆瓣链接 https://movie.douban.com/subject/26964180/
◎片  长 96分钟
◎导  演 Jamie Jones
◎主  演 马库斯·拉瑟福德
      苏菲·肯尼迪·克拉克
      Michael Quartey
      萨姆·吉斯
      T"Nia Miller
      James Atwell
      Taurean Steele
      Jasmine Jobson
      Joshua Blisset
      Daniel Akilimali
      Wil Coban
      李·尼古拉斯·哈里斯

◎简  介 

  As London slides towards the 2011 riots, on the estates of East London, a young man"s life is torn apart by a love for a girl from a different place.

◎获奖情况 

  第21届英国独立电影奖 (2018)
  最佳新演员(提名) 马库斯·拉瑟福德

该资源信息参数

  1. Video
  2. ID                                       : 1
  3. Format                                   : AVC
  4. Format/Info                              : Advanced Video Codec
  5. Format profile                           : [email protected]
  6. Format settings                          : CABAC / 5 Ref Frames
  7. Format settings, CABAC                   : Yes
  8. Format settings, ReFrames                : 5 frames
  9. Codec ID                                 : V_MPEG4/ISO/AVC
  10. Duration                                 : 1 h 36 min
  11. Bit rate                                 : 4 551 kb/s
  12. Width                                    : 1 904 pixels
  13. Height                                   : 800 pixels
  14. Display aspect ratio                     : 2.40:1
  15. Frame rate mode                          : Constant
  16. Frame rate                               : 24.000 FPS
  17. Color space                              : YUV
  18. Chroma subsampling                       : 4:2:0
  19. Bit depth                                : 8 bits
  20. Scan type                                : Progressive
  21. Bits/(Pixel*Frame)                       : 0.124
  22. Stream size                              : 3.06 GiB (92%)
  23. Title                                    : Obey.2018.1080p.WEB-DL.DD5.1.H264-FGT
  24. Language                                 : English
  25. Default                                  : Yes
  26. Forced                                   : No
  27. Color range                              : Limited
  28. Color primaries                          : BT.709
  29. Transfer characteristics                 : BT.709
  30. Matrix coefficients                      : BT.709

  31. Audio
  32. ID                                       : 2
  33. Format                                   : AC-3
  34. Format/Info                              : Audio Coding 3
  35. Commercial name                          : Dolby Digital
  36. Codec ID                                 : A_AC3
  37. Duration                                 : 1 h 36 min
  38. Bit rate mode                            : Constant
  39. Bit rate                                 : 384 kb/s
  40. Channel(s)                               : 6 channels
  41. Channel layout                           : L R C LFE Ls Rs
  42. Sampling rate                            : 48.0 kHz
  43. Frame rate                               : 31.250 FPS (1536 SPF)
  44. Bit depth                                : 16 bits
  45. Compression mode                         : Lossy
  46. Stream size                              : 265 MiB (8%)
  47. Title                                    : Obey.2018.1080p.WEB-DL.DD5.1.H264-FGT
  48. Language                                 : English
  49. Service kind                             : Complete Main
  50. Default                                  : Yes
  51. Forced                                   : No

  52. Menu
  53. 00:00:00.000                             : en:Chapter 1
  54. 00:02:58.178                             : en:Chapter 2
  55. 00:12:22.742                             : en:Chapter 3
  56. 00:22:30.349                             : en:Chapter 4
  57. 00:31:42.901                             : en:Chapter 5
  58. 00:42:03.521                             : en:Chapter 6
  59. 00:53:30.207                             : en:Chapter 7
  60. 01:03:48.825                             : en:Chapter 8
  61. 01:09:49.185                             : en:Chapter 9
  62. 01:20:34.830                             : en:Chapter 10
  63. 01:32:11.526                             : en:Chapter 11
复制代码

复制代码


精彩剧照




蓝光高清网提示您 点击下方附件名称 马上开始下载



  • 该资源需要您回复以后 刷新网页进行下载操作

  • 1、Obey.2018.1080p.WEB-DL.DD5.1.H264-FGT.torrent 67KB 已下载 0 次

加入蓝光高清网VIP会员  无限制下载本站所有资源---点此加入

资源下载、资源播放、字幕使用、无法下载等常见问题---点这里

回复

使用道具 举报

懒得打字嘛,点击右侧快捷回复
高级模式
B Color Image Link Quote Code Smilies 上传

本版积分规则

关注0

粉丝0

帖子52171

发布主题
最新电影 论坛
广告位

Archiver手机版蓝光高清网 ( 渝ICP备18006373号-2 )|网站地图

Powered by Discuz! X3.4  © 2001-2013 Comsenz Inc.