[动物世界] [狂野非洲].DVB/DTS全码上译公映国语/简繁特效]African.Safari.2013.BluRay.1080p.x264.dts-5.1-DVB@szsddqwx 11.22GB

[复制链接]
MYadminwl*#VIP会员 年费VIP会员 发表于 2019-9-29 08:44:22 | 显示全部楼层 |阅读模式 打印 上一主题 下一主题

马上注册,轻松下载,海量资源,让你轻松玩转社区。

您需要 登录 才可以下载或查看,没有帐号?立即注册

x
影片标题

[狂野非洲].DVB/DTS全码上译公映国语/简繁特效]

High@L4





影片信息
英文名称:African Safari

中文译名:狂野非洲

年  代:2013

上映日期:2014-11-07(中国大陆)/2013-10-10(德国)

国家地区:法国 / 比利时

影片类别:纪录片

语  言:英语

影片时长: 85分钟

编        剧:   本·斯塔森/米歇尔·菲思勒

导  演:本·斯塔森

主  演:凯文·理查德森 / 玛拉·道格拉斯-汉密尔顿

国语配音:刘欢/卢璐/程玉珠/张欣/赵乾景

豆瓣评分: 7.3/10 from 3446 users

豆瓣链接 :https://movie.douban.com/subject/25884869/

IMDb评分: 6.1/10 from 339 users

IMDb链接: http://www.imdb.com/title/tt3110822


剧情简介:
       导演本·斯塔森和摄影师肖恩·麦克劳德·菲利普斯回到非洲南部,开始了一次全新的冒险之旅。

被称作“狮语者”的动物行为学家凯文·理查德森与从小与大象一起长大的玛拉·道格拉斯·汉密尔顿带领观众以旅行的方式穿过了地球上景色最壮丽的地方:

从纳米比亚风景如画的海岸沙丘的沙漠,路过堪称自然奇观的火山口,到达叹为观止的维多利亚瀑布和乞力马扎罗之巅。
  在这次旅程中,你能与狮子、猎豹、美洲豹、黑犀牛和大象们近距离的亲密接触。这是一辈子一次的旅行,所以让我们做好准备,一起进入真正的没有围墙保护的非洲原野。

影片参数

  • Format                         : Matroska
  • Format version                 : Version 4
  • File size                      : 11.2 GiB
  • Duration                       : 1 h 26 min
  • Overall bit rate mode          : Variable
  • Overall bit rate               : 18.6 Mb/s
  • Encoded date                   : UTC 2019-09-27 09:18:30
  • Writing application            : mkvmerge v35.0.0 ('All The Love In The World') 64-bit
  • Writing library                : libebml v1.3.9 + libmatroska v1.5.2
  • Video
  • ID                             : 1
  • Format                         : AVC
  • Format/Info                    : Advanced Video Codec
  • Format profile                 : High@L4.1
  • Format settings                : CABAC / 4 Ref Frames
  • Format settings, CABAC         : Yes
  • Format settings, Reference fra : 4 frames
  • Codec ID                       : V_MPEG4/ISO/AVC
  • Duration                       : 1 h 26 min
  • Bit rate mode                  : Variable
  • Bit rate                       : 12.8 Mb/s
  • Maximum bit rate               : 62.5 Mb/s
  • Width                          : 1 920 pixels
  • Height                         : 1 036 pixels
  • Display aspect ratio           : 1.85:1
  • Frame rate mode                : Constant
  • Frame rate                     : 23.976 (24000/1001) FPS
  • Color space                    : YUV
  • Chroma subsampling             : 4:2:0
  • Bit depth                      : 8 bits
  • Scan type                      : Progressive
  • Bits/(Pixel*Frame)             : 0.268
  • Stream size                    : 7.71 GiB (69%)
  • Writing library                : x264 core 140 r2377 1ca7bb9
  • Encoding settings              : cabac=1 / ref=4 / deblock=1:0:0 / analyse=0x3:0x113 / me=umh / subme=8 / psy=1 / psy_rd=1.00:0.00 / mixed_ref=1 / me_range=16 / chroma_me=1 / trellis=1 / 8x8dct=1 / cqm=0 / deadzone=21,11 / fast_pskip=1 / chroma_qp_offset=-2 / threads=12 / lookahead_threads=2 / sliced_threads=0 / nr=0 / decimate=1 / interlaced=0 / bluray_compat=0 / constrained_intra=0 / bframes=3 / b_pyramid=0 / b_adapt=2 / b_bias=0 / direct=3 / weightb=1 / open_gop=0 / weightp=2 / keyint=240 / keyint_min=24 / scenecut=40 / intra_refresh=0 / rc_lookahead=50 / rc=2pass / mbtree=1 / bitrate=12800 / ratetol=1.0 / qcomp=0.60 / qpmin=0 / qpmax=69 / qpstep=4 / cplxblur=20.0 / qblur=0.5 / vbv_maxrate=62500 / vbv_bufsize=62500 / nal_hrd=vbr / filler=0 / ip_ratio=1.40 / aq=1:1.00
  • Default                        : Yes
  • Forced                         : No
  • Audio #1
  • ID                             : 2
  • Format                         : DTS
  • Format/Info                    : Digital Theater Systems
  • Codec ID                       : A_DTS
  • Duration                       : 1 h 26 min
  • Bit rate mode                  : Constant
  • Bit rate                       : 1 509 kb/s
  • Channel(s)                     : 6 channels
  • Channel layout                 : C L R Ls Rs LFE
  • Sampling rate                  : 48.0 kHz
  • Frame rate                     : 93.750 FPS (512 SPF)
  • Bit depth                      : 24 bits
  • Compression mode               : Lossy
  • Stream size                    : 931 MiB (8%)
  • Title                          : Ita. DTS 1510 Kbps
  • Language                       : Italian
  • Default                        : Yes
  • Forced                         : No
  • Audio #2
  • ID                             : 3
  • Format                         : AC-3
  • Format/Info                    : Audio Coding 3
  • Commercial name                : Dolby Digital
  • Codec ID                       : A_AC3
  • Duration                       : 1 h 26 min
  • Bit rate mode                  : Constant
  • Bit rate                       : 640 kb/s
  • Channel(s)                     : 6 channels
  • Channel layout                 : L R C LFE Ls Rs
  • Sampling rate                  : 48.0 kHz
  • Frame rate                     : 31.250 FPS (1536 SPF)
  • Bit depth                      : 16 bits
  • Compression mode               : Lossy
  • Stream size                    : 395 MiB (3%)
  • Title                          : Ita. AC3 640 Kbps
  • Language                       : Italian
  • Service kind                   : Complete Main
  • Default                        : No
  • Forced                         : No
  • Audio #3
  • ID                             : 4
  • Format                         : DTS
  • Format/Info                    : Digital Theater Systems
  • Codec ID                       : A_DTS
  • Duration                       : 1 h 26 min
  • Bit rate mode                  : Constant
  • Bit rate                       : 1 509 kb/s
  • Channel(s)                     : 6 channels
  • Channel layout                 : C L R Ls Rs LFE
  • Sampling rate                  : 48.0 kHz
  • Frame rate                     : 93.750 FPS (512 SPF)
  • Bit depth                      : 24 bits
  • Compression mode               : Lossy
  • Stream size                    : 931 MiB (8%)
  • Title                          : Eng. DTS 1510 Kbps
  • Language                       : English
  • Default                        : No
  • Forced                         : No
  • Audio #4
  • ID                             : 5
  • Format                         : AC-3
  • Format/Info                    : Audio Coding 3
  • Commercial name                : Dolby Digital
  • Codec ID                       : A_AC3
  • Duration                       : 1 h 26 min
  • Bit rate mode                  : Constant
  • Bit rate                       : 640 kb/s
  • Channel(s)                     : 6 channels
  • Channel layout                 : L R C LFE Ls Rs
  • Sampling rate                  : 48.0 kHz
  • Frame rate                     : 31.250 FPS (1536 SPF)
  • Bit depth                      : 16 bits
  • Compression mode               : Lossy
  • Stream size                    : 395 MiB (3%)
  • Title                          : Eng. AC3 640 Kbps
  • Language                       : English
  • Service kind                   : Complete Main
  • Default                        : No
  • Forced                         : No
  • Audio #5
  • ID                             : 7
  • Format                         : DTS
  • Format/Info                    : Digital Theater Systems
  • Codec ID                       : A_DTS
  • Duration                       : 1 h 26 min
  • Bit rate mode                  : Constant
  • Bit rate                       : 1 509 kb/s
  • Channel(s)                     : 6 channels
  • Channel layout                 : C L R Ls Rs LFE
  • Sampling rate                  : 48.0 kHz
  • Frame rate                     : 93.750 FPS (512 SPF)
  • Bit depth                      : 16 bits
  • Compression mode               : Lossy
  • Stream size                    : 931 MiB (8%)
  • Title                          : 上译公映国语
  • Language                       : Chinese
  • Default                        : No
  • Forced                         : No
  • Text #1
  • ID                             : 6
  • Format                         : UTF-8
  • Codec ID                       : S_TEXT/UTF8
  • Codec ID/Info                  : UTF-8 Plain Text
  • Duration                       : 1 h 23 min
  • Bit rate                       : 68 b/s
  • Count of elements              : 944
  • Stream size                    : 41.7 KiB (0%)
  • Title                          : Sub. Ita. Non Udenti
  • Language                       : Italian
  • Default                        : No
  • Forced                         : No
  • Text #2
  • ID                             : 8
  • Format                         : ASS
  • Codec ID                       : S_TEXT/ASS
  • Codec ID/Info                  : Advanced Sub Station Alpha
  • Duration                       : 1 h 23 min
  • Bit rate                       : 60 b/s
  • Count of elements              : 474
  • Compression mode               : Lossless
  • Stream size                    : 36.8 KiB (0%)
  • Title                          : 简体特效
  • Language                       : Chinese
  • Default                        : Yes
  • Forced                         : No
  • Text #3
  • ID                             : 9
  • Format                         : ASS
  • Codec ID                       : S_TEXT/ASS
  • Codec ID/Info                  : Advanced Sub Station Alpha
  • Duration                       : 1 h 23 min
  • Bit rate                       : 60 b/s
  • Count of elements              : 474
  • Compression mode               : Lossless
  • Stream size                    : 36.8 KiB (0%)
  • Title                          : 繁体特效
  • Language                       : Chinese
  • Default                        : No
  • Forced                         : No
  • Menu
  • 00:00:00.000                   : en:00:00:00.000
  • 00:10:09.234                   : en:00:10:09.234
  • 00:22:00.319                   : en:00:22:00.319
  • 00:32:05.715                   : en:00:32:05.715
  • 00:41:25.274                   : en:00:41:25.274
  • 00:53:34.420                   : en:00:53:34.420
  • 01:03:23.591                   : en:01:03:23.591
  • 01:13:21.063                   : en:01:13:21.063




精彩剧照














蓝光高清网提示您  点击下方附件名称  马上开始下载





温馨提示:
本站资源优先使用迅雷下载,迅雷会员下载,速度基本可以跑满宽带
如果遇到无资源或者版权问题无法下载,推荐使用115网盘离线下载(点击查看115网盘离线下载教程





  • 该资源需要您回复以后 刷新网页进行下载操作

  • 1、[狂野非洲].DVB上译公映国语.简繁特效.torrent 57KB 已下载 2 次

加入蓝光高清网VIP会员  无限制下载本站所有资源---点此加入

资源下载、资源播放、字幕使用、无法下载等常见问题---点这里

回复

使用道具 举报

懒得打字嘛,点击右侧快捷回复
高级模式
B Color Image Link Quote Code Smilies 上传

本版积分规则

关注0

粉丝0

帖子237

发布主题
最新电影 论坛
广告位
联系我们
点击这里联系客服

服务时间:
周一到周日8:00-23:30

  • 打开微信扫一扫
    关注公众号

  • 手机QQ扫一扫
    添加客服

Archiver手机版蓝光高清网 ( 渝ICP备18006373号-2 )|网站地图

Powered by Discuz! X3.4  © 2001-2013 Comsenz Inc.