[动物世界] BBC:[大猫:终极猎食者][第壹季/全叁集]【DTS刘琮国语】[简繁双语特效]Big.Cats.S01EP03.2018.1080p.AMZN.WEB.H264.dts-5.1-DVB@szsddqwx 16.48GB

[复制链接]
MYadminwl*#VIP会员 年费VIP会员 发表于 2019-9-29 08:47:28 | 显示全部楼层 |阅读模式 打印 上一主题 下一主题

马上注册,轻松下载,海量资源,让你轻松玩转社区。

您需要 登录 才可以下载或查看,没有帐号?立即注册

x
影片标题

BBC:[大猫:终极猎食者][第壹季/全叁集]【DTS刘琮国语】[简繁双语特效]





英文名称:Big Cats


中文名称:大猫

中文又名:终极猎食者

年        代:2018

首播时间:2018-01-11(英国) 2018-01-12(中国腾讯)

影片类型:纪录片

国家地区:英国

影片语言:英语

影片集数:全3集

单集片长:58分钟

导       演:Sara Douglas / Nick Easton / Anna Place

主       演:博迪·卡维尔   Bertie Carvel

豆瓣评分:9.5 / 10 / from  1.6071 users

豆瓣链接:https://movie.douban.com/subject/27620616/

IMDb评分:8.5 / 10 /  from 381 users

IMDb链接:https://www.imdb.com/title/tt7860116/

官方网站:http://www.bbc.co.uk/programmes/p05q599b

剧情介绍:

  BBC最新纪录片,一个家族,40种不同面孔!将有非洲狮、虎、美洲豹、金钱豹、猎豹、云豹、雪豹、美洲狮、猞猁、豹猫、虎猫、渔猫、黑足猫、兔狲、薮猫、沙漠猫…等等很多野生猫科动物纷纷出镜

分集简介

第一集

              猫科动物,它们无与伦比,深深吸引了我们。它们是地球上的顶级食肉动物,也是每个人的最爱。但即使在这个非凡的动物家庭中,也有一些成员脱颖而出。见识一下世界上的终极猫科动物。在坦桑尼亚鲁阿哈国家公园,狮子们为了追捕大型的猎物,形成了规模巨大的狮群。在猫科动物中狮子是最为特殊的,它们是少有的群居动物。它们会利用数量优势,鼓起勇气,攻击最为凶猛的猎物。
             在斯里兰卡,一只小小的锈斑豹猫探索了它在森林的住处。它比狮子小200倍,是所有猫科动物中最小的,但它依然充满了好奇。
加拿大猞猁是生活在最北端的猫科动物,以白靴兔为食在寒冷的冬季中生存。猞猁依然是一种神秘的生物,但我们可以凭借科学技术洞察它们的秘密生活。猫科动物可能是凶残的掠食者,但它们也很温柔,聪明,情感丰富。非洲豹蜂蜜是一位母亲。
            十年来,它脖子上一直佩戴着一个无线电项圈,使得科学家们可以充分了解到它生活中的起起伏伏。
            正值几十年来最严重的旱灾,它正在努力喂养自己的幼崽。在喜马拉雅山脉,世界上最寂寞的猫科动物正在寻找一个伴侣。这只雄性雪豹这辈子可能只有这一次交配的机会了。猫科动物天性隐秘、难以捉摸、神秘莫测。随着摄影技术的发展,猫科动物研究的进步,猫科动物中的这群超级明星才得以成为焦点。《大猫》既有充满魅力的一举一动,又有扣人心弦的故事情节,反映出猫科动物的本质,揭示它们是如何为人类带来惊喜的。

第二集
              猫科动物征服了整个地球:在世界上最干燥的沙漠,非洲最年轻的狮群在艰苦的环境中存活下来;在亚洲的湿地,渔猫教它们的孩子如何猎食。
猫科动物适应了地球上的各种环境,在美洲中部的丛林,身怀绝技的虎猫在树林顶端来回跳跃,在偏远的太平洋海滩上,一只怀孕的美洲豹等待着数千只海龟的到来,而一只独眼短尾猫学会了如何从空中猎捕海鸥填饱肚子。 先进的远程拍摄和微光拍摄技术首次以全新的视角,揭示神秘的小型猫科动物的活动。在南非的卡鲁沙漠,我们拍到了一种体型很小的黑足猫,这种夜行动物据称是地球上最致命的猎食者。在外蒙古,罕见的兔狲和它的孩子们在家休息。它在猎捕时展示了它非凡的特点:头部较宽,耳朵长在头部两侧较低的位置。兔狲将身体放平,使自己看起来像一块岩石。
            最后,在非洲最大的工业区,我们发现了薮猫在现代世界繁衍发展的秘密。

第三集
               科学家们以前所未有的细节研究猫科动物,他们的发现具有开创性的意义。让我们加入相关领域的优秀科学家,测验新的理论,颠覆有关猫科动物的传统观点。
新的方法和技术能够让我们亲眼看到以前人们知之甚少的猫科动物的生活。新时代中充满了发现,告诉我们在猫科动物中,值得科学家探索的东西还有很多。通过高科技项圈,艾伦·威尔逊教授发现,猎豹最大的武器并非是直线速度,而是它们制动、改变方向和加速的能力。他的研究改变了我们对这种陆地上速度最快的动物的理解。
              眼下也是猫科动物保护的关键时期,大多数猫科动物的栖息地大量丧失,与人类也冲突不断。
然而还有许多积极的故事,一些猫科动物的数量从濒临灭绝逐渐回升。这体现了猫科动物保护者为保护它们而做出的不懈努力。就在五年前,伊比利亚猞猁被认为是地球上最稀有的猫。由于一项前所未有的圈养繁殖计划,伊比利亚猞猁的数量正在不断增加。工作人员为了伊比利亚猞猁的生育与放归付出了巨大的努力,所有的辛苦工作,得到了回报。


影片参数
  • Format : Matroska
  • Format version : Version 4
  • File size : 5.79 GiB
  • Duration : 58 min 33 s
  • Overall bit rate mode : Variable
  • Overall bit rate : 14.1 Mb/s
  • Encoded date : UTC 2019-08-04 05:28:04
  • Writing application : mkvmerge v34.0.0 ('Sight and Seen') 64-bit
  • Writing library : libebml v1.3.7 + libmatroska v1.5.0
  • Video
  • ID : 1
  • Format : AVC
  • Format/Info : Advanced Video Codec
  • Format profile : High@L4
  • Format settings : CABAC / 4 Ref Frames
  • Format settings, CABAC : Yes
  • Format settings, Reference fra : 4 frames
  • Codec ID : V_MPEG4/ISO/AVC
  • Duration : 58 min 33 s
  • Bit rate mode : Variable
  • Bit rate : 11.1 Mb/s
  • Maximum bit rate : 15.0 Mb/s
  • Width : 1 920 pixels
  • Height : 1 080 pixels
  • Display aspect ratio : 16:9
  • Frame rate mode : Constant
  • Frame rate : 25.000 FPS
  • Color space : YUV
  • Chroma subsampling : 4:2:0
  • Bit depth : 8 bits
  • Scan type : Progressive
  • Bits/(Pixel*Frame) : 0.215
  • Stream size : 4.55 GiB (79%)
  • Default : Yes
  • Forced : No
  • Color range : Limited
  • Color primaries : BT.709
  • Transfer characteristics : BT.709
  • Matrix coefficients : BT.709
  • Audio #1
  • ID : 2
  • Format : DTS
  • Format/Info : Digital Theater Systems
  • Codec ID : A_DTS
  • Duration : 58 min 32 s
  • Bit rate mode : Constant
  • Bit rate : 1 509 kb/s
  • Channel(s) : 2 channels
  • Channel layout : L R
  • Sampling rate : 48.0 kHz
  • Frame rate : 93.750 FPS (512 SPF)
  • Bit depth : 16 bits
  • Compression mode : Lossy
  • Stream size : 632 MiB (11%)
  • Title : 英语
  • Language : English
  • Default : Yes
  • Forced : No
  • Audio #2
  • ID : 3
  • Format : DTS
  • Format/Info : Digital Theater Systems
  • Codec ID : A_DTS
  • Duration : 58 min 32 s
  • Bit rate mode : Constant
  • Bit rate : 1 509 kb/s
  • Channel(s) : 6 channels
  • Channel layout : C L R Ls Rs LFE
  • Sampling rate : 48.0 kHz
  • Frame rate : 93.750 FPS (512 SPF)
  • Bit depth : 16 bits
  • Compression mode : Lossy
  • Stream size : 632 MiB (11%)
  • Title : 腾讯国语
  • Language : Chinese
  • Default : No
  • Forced : No
  • Text #1
  • ID : 4
  • Format : ASS
  • Codec ID : S_TEXT/ASS
  • Codec ID/Info : Advanced Sub Station Alpha
  • Duration : 57 min 45 s
  • Bit rate : 114 b/s
  • Count of elements : 714
  • Compression mode : Lossless
  • Stream size : 48.6 KiB (0%)
  • Title : 简体特效
  • Language : Chinese
  • Default : Yes
  • Forced : No
  • Text #2
  • ID : 5
  • Format : ASS
  • Codec ID : S_TEXT/ASS
  • Codec ID/Info : Advanced Sub Station Alpha
  • Duration : 57 min 45 s
  • Bit rate : 114 b/s
  • Count of elements : 714
  • Compression mode : Lossless
  • Stream size : 48.6 KiB (0%)
  • Title : 繁体特效
  • Language : Chinese
  • Default : No
  • Forced : No
  • Text #3
  • ID : 6
  • Format : ASS
  • Codec ID : S_TEXT/ASS
  • Codec ID/Info : Advanced Sub Station Alpha
  • Duration : 57 min 45 s
  • Bit rate : 243 b/s
  • Count of elements : 713
  • Compression mode : Lossless
  • Stream size : 103 KiB (0%)
  • Title : 简英特效
  • Language : Chinese
  • Default : No
  • Forced : No
  • Text #4
  • ID : 7
  • Format : ASS
  • Codec ID : S_TEXT/ASS
  • Codec ID/Info : Advanced Sub Station Alpha
  • Duration : 57 min 45 s
  • Bit rate : 243 b/s
  • Count of elements : 713
  • Compression mode : Lossless
  • Stream size : 103 KiB (0%)
  • Title : 繁英特效
  • Language : Chinese
  • Default : No
  • Forced : No



精彩剧照









蓝光高清网提示您  点击下方附件名称  马上开始下载







温馨提示:
本站资源优先使用迅雷下载,迅雷会员下载,速度基本可以跑满宽带
如果遇到无资源或者版权问题无法下载,推荐使用115网盘离线下载(点击查看115网盘离线下载教程




  • 该资源需要您回复以后 刷新网页进行下载操作

  • 1、BBC:[大猫:终极猎食者].全叁集.DVB国语.简繁双语特效.torrent 83KB 已下载 1 次

加入蓝光高清网VIP会员  无限制下载本站所有资源---点此加入

资源下载、资源播放、字幕使用、无法下载等常见问题---点这里

回复

使用道具 举报

懒得打字嘛,点击右侧快捷回复
高级模式
B Color Image Link Quote Code Smilies 上传

本版积分规则

关注0

粉丝0

帖子237

发布主题
最新电影 论坛
广告位
联系我们
点击这里联系客服

服务时间:
周一到周日8:00-23:30

  • 打开微信扫一扫
    关注公众号

  • 手机QQ扫一扫
    添加客服

Archiver手机版蓝光高清网 ( 渝ICP备18006373号-2 )|网站地图

Powered by Discuz! X3.4  © 2001-2013 Comsenz Inc.