雅多维尔围城战
4K 
7.4
  • 年代: 2016年
  • 国家/地区: 其他
  • 类型: 动作 剧情 惊悚 战争 
  • 导演: 里奇·斯迈斯
  • 音轨:  
  • 时长: 108分钟
  • 主演:詹米·多南 / 马克·斯特朗 / 杰森·奥玛拉 / 迈克尔·麦克埃尔哈顿
特别声明:本站提供的所有高清电影作品均是在网上搜集,任何涉及商业盈利目的均不得使用,否则产生的一切后果将由您自己承担!本站将不对本站的任何内容负任何法律责任!该下载内容仅做宽带测试使用,请在下载后24小时内删除。请购买正版! 本站所有资源均由网上收集而来,版权归原影音公司所有,如果侵犯了你的权益,请通知我们,我们会及时删除侵权内容.

雅多维尔围城战 The.Siege.of.Jadotville.2016.2160p.NF.WEBRip.x265.10bit.SDR.DD5.1-TrollUHD 12.18GB

[复制链接]
MYadminwl*#VIP会员 年费VIP会员 发表于 2019-9-30 08:53:05 | 显示全部楼层 |阅读模式 打印 上一主题 下一主题

马上注册,轻松下载,海量资源,让你轻松玩转社区。

您需要 登录 才可以下载或查看,没有帐号?立即注册

x
简  介  
- X1 e+ L$ X+ I# R+ `9 s  y' c- s) l) n- W5 T1 q0 v' B7 U
  故事围绕上世纪60年代初的刚果,爱尔兰司令帕特·昆兰领导的驻守部队,将面临法、比派遣的雇佣兵侵袭展开。
7 ]8 @6 E# ~; c
. a3 p2 s# A" G1 f1 a7 Q; k影片参数$ f+ R) D9 {; E- D" W2 G
  • Video
  • ID                                       : 24
  • Format                                   : HEVC
  • Format/Info                              : High Efficiency Video Coding
  • Format profile                           : Main High@L4@Main
  • Codec ID                                 : V_MPEGH/ISO/HEVC
  • Duration                                 : 1 h 48 min
  • Bit rate                                 : 15.7 Mb/s
  • Width                                    : 3 840 pixels
  • Height                                   : 2 160 pixels
  • Display aspect ratio                     : 16:9
  • Frame rate mode                          : Constant
  • Frame rate                               : 24.000 FPS
  • Color space                              : YUV
  • Chroma subsampling                       : 4:2:0
  • Bit depth                                : 10 bits
  • Bits/(Pixel*Frame)                       : 0.079
  • Stream size                              : 11.9 GiB (98%)
  • Title                                    : English
  • Language                                 : English
  • Default                                  : Yes
  • Forced                                   : No
  • Color range                              : Limited
  • Color primaries                          : BT.709
  • Transfer characteristics                 : BT.709
  • Matrix coefficients                      : BT.709
  • Audio
  • ID                                       : 1
  • Format                                   : AC-3
  • Format/Info                              : Audio Coding 3
  • Commercial name                          : Dolby Digital
  • Codec ID                                 : A_AC3
  • Duration                                 : 1 h 48 min
  • Bit rate mode                            : Constant
  • Bit rate                                 : 384 kb/s
  • Channel(s)                               : 6 channels
  • Channel layout                           : L R C LFE Ls Rs
  • Sampling rate                            : 48.0 kHz
  • Frame rate                               : 31.250 FPS (1536 SPF)
  • Bit depth                                : 16 bits
  • Compression mode                         : Lossy
  • Stream size                              : 298 MiB (2%)
  • Language                                 : English
  • Service kind                             : Complete Main
  • Default                                  : Yes
  • Forced                                   : No
  • Text #1
  • ID                                       : 2
  • Format                                   : UTF-8
  • Codec ID                                 : S_TEXT/UTF8
  • Codec ID/Info                            : UTF-8 Plain Text
  • Duration                                 : 40 s 375 ms
  • Bit rate                                 : 109 b/s
  • Count of elements                        : 13
  • Stream size                              : 554 Bytes (0%)
  • Title                                    : Forced
  • Language                                 : English
  • Default                                  : Yes
  • Forced                                   : Yes
  • Text #2
  • ID                                       : 3
  • Format                                   : UTF-8
  • Codec ID                                 : S_TEXT/UTF8
  • Codec ID/Info                            : UTF-8 Plain Text
  • Duration                                 : 1 h 46 min
  • Bit rate                                 : 49 b/s
  • Count of elements                        : 1337
  • Stream size                              : 38.8 KiB (0%)
  • Title                                    : SDH
  • Language                                 : English
  • Default                                  : No
  • Forced                                   : No
  • Text #3
  • ID                                       : 4
  • Format                                   : UTF-8
  • Codec ID                                 : S_TEXT/UTF8
  • Codec ID/Info                            : UTF-8 Plain Text
  • Duration                                 : 1 h 42 min
  • Bit rate                                 : 77 b/s
  • Count of elements                        : 1138
  • Stream size                              : 58.1 KiB (0%)
  • Language                                 : Arabic
  • Default                                  : No
  • Forced                                   : No
  • Text #4
  • ID                                       : 5
  • Format                                   : UTF-8
  • Codec ID                                 : S_TEXT/UTF8
  • Codec ID/Info                            : UTF-8 Plain Text
  • Duration                                 : 1 h 42 min
  • Bit rate                                 : 41 b/s
  • Count of elements                        : 925
  • Stream size                              : 31.0 KiB (0%)
  • Language                                 : Danish
  • Default                                  : No
  • Forced                                   : No
  • Text #5
  • ID                                       : 6
  • Format                                   : UTF-8
  • Codec ID                                 : S_TEXT/UTF8
  • Codec ID/Info                            : UTF-8 Plain Text
  • Duration                                 : 1 h 42 min
  • Bit rate                                 : 45 b/s
  • Count of elements                        : 1005
  • Stream size                              : 33.9 KiB (0%)
  • Language                                 : German
  • Default                                  : No
  • Forced                                   : No
  • Text #6
  • ID                                       : 7
  • Format                                   : UTF-8
  • Codec ID                                 : S_TEXT/UTF8
  • Codec ID/Info                            : UTF-8 Plain Text
  • Duration                                 : 1 h 42 min
  • Bit rate                                 : 41 b/s
  • Count of elements                        : 1133
  • Stream size                              : 31.3 KiB (0%)
  • Language                                 : Spanish
  • Default                                  : No
  • Forced                                   : No
  • Text #7
  • ID                                       : 8
  • Format                                   : UTF-8
  • Codec ID                                 : S_TEXT/UTF8
  • Codec ID/Info                            : UTF-8 Plain Text
  • Duration                                 : 1 h 42 min
  • Bit rate                                 : 38 b/s
  • Count of elements                        : 1143
  • Stream size                              : 29.2 KiB (0%)
  • Language                                 : Spanish
  • Default                                  : No
  • Forced                                   : No
  • Text #8
  • ID                                       : 9
  • Format                                   : UTF-8
  • Codec ID                                 : S_TEXT/UTF8
  • Codec ID/Info                            : UTF-8 Plain Text
  • Duration                                 : 1 h 42 min
  • Bit rate                                 : 38 b/s
  • Count of elements                        : 820
  • Stream size                              : 28.9 KiB (0%)
  • Language                                 : Finnish
  • Default                                  : No
  • Forced                                   : No
  • Text #9
  • ID                                       : 10
  • Format                                   : UTF-8
  • Codec ID                                 : S_TEXT/UTF8
  • Codec ID/Info                            : UTF-8 Plain Text
  • Duration                                 : 1 h 42 min
  • Bit rate                                 : 43 b/s
  • Count of elements                        : 1110
  • Stream size                              : 32.3 KiB (0%)
  • Language                                 : French
  • Default                                  : No
  • Forced                                   : No
  • Text #10
  • ID                                       : 11
  • Format                                   : UTF-8
  • Codec ID                                 : S_TEXT/UTF8
  • Codec ID/Info                            : UTF-8 Plain Text
  • Duration                                 : 1 h 42 min
  • Bit rate                                 : 71 b/s
  • Count of elements                        : 1099
  • Stream size                              : 53.5 KiB (0%)
  • Language                                 : Hebrew
  • Default                                  : No
  • Forced                                   : No
  • Text #11
  • ID                                       : 12
  • Format                                   : UTF-8
  • Codec ID                                 : S_TEXT/UTF8
  • Codec ID/Info                            : UTF-8 Plain Text
  • Duration                                 : 1 h 42 min
  • Bit rate                                 : 42 b/s
  • Count of elements                        : 1147
  • Stream size                              : 31.9 KiB (0%)
  • Language                                 : Italian
  • Default                                  : No
  • Forced                                   : No
  • Text #12
  • ID                                       : 13
  • Format                                   : UTF-8
  • Codec ID                                 : S_TEXT/UTF8
  • Codec ID/Info                            : UTF-8 Plain Text
  • Duration                                 : 1 h 42 min
  • Bit rate                                 : 36 b/s
  • Count of elements                        : 1023
  • Stream size                              : 27.0 KiB (0%)
  • Language                                 : Japanese
  • Default                                  : No
  • Forced                                   : No
  • Text #13
  • ID                                       : 14
  • Format                                   : UTF-8
  • Codec ID                                 : S_TEXT/UTF8
  • Codec ID/Info                            : UTF-8 Plain Text
  • Duration                                 : 1 h 42 min
  • Bit rate                                 : 44 b/s
  • Count of elements                        : 1152
  • Stream size                              : 33.2 KiB (0%)
  • Language                                 : Korean
  • Default                                  : No
  • Forced                                   : No
  • Text #14
  • ID                                       : 15
  • Format                                   : UTF-8
  • Codec ID                                 : S_TEXT/UTF8
  • Codec ID/Info                            : UTF-8 Plain Text
  • Duration                                 : 1 h 42 min
  • Bit rate                                 : 41 b/s
  • Count of elements                        : 932
  • Stream size                              : 31.4 KiB (0%)
  • Language                                 : Norwegian Bokmal
  • Default                                  : No
  • Forced                                   : No
  • Text #15
  • ID                                       : 16
  • Format                                   : UTF-8
  • Codec ID                                 : S_TEXT/UTF8
  • Codec ID/Info                            : UTF-8 Plain Text
  • Duration                                 : 1 h 42 min
  • Bit rate                                 : 40 b/s
  • Count of elements                        : 860
  • Stream size                              : 30.3 KiB (0%)
  • Language                                 : Dutch
  • Default                                  : No
  • Forced                                   : No
  • Text #16
  • ID                                       : 17
  • Format                                   : UTF-8
  • Codec ID                                 : S_TEXT/UTF8
  • Codec ID/Info                            : UTF-8 Plain Text
  • Duration                                 : 1 h 42 min
  • Bit rate                                 : 34 b/s
  • Count of elements                        : 1122
  • Stream size                              : 25.7 KiB (0%)
  • Language                                 : Polish
  • Default                                  : No
  • Forced                                   : No
  • Text #17
  • ID                                       : 18
  • Format                                   : UTF-8
  • Codec ID                                 : S_TEXT/UTF8
  • Codec ID/Info                            : UTF-8 Plain Text
  • Duration                                 : 1 h 42 min
  • Bit rate                                 : 43 b/s
  • Count of elements                        : 1147
  • Stream size                              : 32.5 KiB (0%)
  • Language                                 : Portuguese
  • Default                                  : No
  • Forced                                   : No
  • Text #18
  • ID                                       : 19
  • Format                                   : UTF-8
  • Codec ID                                 : S_TEXT/UTF8
  • Codec ID/Info                            : UTF-8 Plain Text
  • Duration                                 : 1 h 42 min
  • Bit rate                                 : 41 b/s
  • Count of elements                        : 1122
  • Stream size                              : 30.9 KiB (0%)
  • Title                                    : Brazilian
  • Language                                 : Portuguese
  • Default                                  : No
  • Forced                                   : No
  • Text #19
  • ID                                       : 20
  • Format                                   : UTF-8
  • Codec ID                                 : S_TEXT/UTF8
  • Codec ID/Info                            : UTF-8 Plain Text
  • Duration                                 : 1 h 42 min
  • Bit rate                                 : 42 b/s
  • Count of elements                        : 857
  • Stream size                              : 31.6 KiB (0%)
  • Language                                 : Swedish
  • Default                                  : No
  • Forced                                   : No
  • Text #20
  • ID                                       : 21
  • Format                                   : UTF-8
  • Codec ID                                 : S_TEXT/UTF8
  • Codec ID/Info                            : UTF-8 Plain Text
  • Duration                                 : 1 h 42 min
  • Bit rate                                 : 45 b/s
  • Count of elements                        : 1086
  • Stream size                              : 34.3 KiB (0%)
  • Language                                 : Turkish
  • Default                                  : No
  • Forced                                   : No
  • Text #21
  • ID                                       : 22
  • Format                                   : UTF-8
  • Codec ID                                 : S_TEXT/UTF8
  • Codec ID/Info                            : UTF-8 Plain Text
  • Duration                                 : 1 h 42 min
  • Bit rate                                 : 41 b/s
  • Count of elements                        : 1153
  • Stream size                              : 31.4 KiB (0%)
  • Title                                    : Simplified
  • Language                                 : Chinese
  • Default                                  : No
  • Forced                                   : No
  • Text #22
  • ID                                       : 23
  • Format                                   : UTF-8
  • Codec ID                                 : S_TEXT/UTF8
  • Codec ID/Info                            : UTF-8 Plain Text
  • Duration                                 : 1 h 42 min
  • Bit rate                                 : 42 b/s
  • Count of elements                        : 1153
  • Stream size                              : 31.9 KiB (0%)
  • Title                                    : Traditional
  • Language                                 : Chinese
  • Default                                  : No
  • Forced                                   : No
    / Z2 t, Y$ M8 ]7 I+ r
. O: f9 r* F+ Y! ?
' g4 u0 D: S$ |8 `+ p& _
/ A+ T1 ^* K; \; e: H- x
精彩剧照
. }+ k3 k8 V8 b& g7 r9 E" w& e( a2 y. F" U
雅多维尔围城战 The.Siege.of.Jadotville.2016.2160p.NF.WEBRip.x265.10bit.SDR.DD5.1-TrollUHD 12.18GB-1.png 雅多维尔围城战 The.Siege.of.Jadotville.2016.2160p.NF.WEBRip.x265.10bit.SDR.DD5.1-TrollUHD 12.18GB-2.png 雅多维尔围城战 The.Siege.of.Jadotville.2016.2160p.NF.WEBRip.x265.10bit.SDR.DD5.1-TrollUHD 12.18GB-3.png ( y$ l  K4 d4 R# Y

$ O1 U' e, s2 s  C7 @; N
1 [. o" R* u" _% e* z! B! s+ m& t6 a& k+ ~
$ p4 Y0 U$ B) d& q& H2 a& r

- q5 k4 y5 i# }4 k0 J蓝光高清网提示您  点击下方附件名称  马上开始下载
0 _- m/ N8 I( O9 }8 r& u8 W" J; i) z4 k, D% T
The.Siege.of.Jadotville.2016.2160p.NF.WEBRip.x265.10bit.SDR.DD5.1-TrollUHD.torrent (61.47 KB, 下载次数: 10)

加入蓝光高清网VIP会员  无限制下载本站所有资源---点此加入

资源下载、资源播放、字幕使用、无法下载等常见问题---点这里

回复

使用道具 举报

精彩评论2

jhlgplVIP会员 发表于 2019-10-2 08:04:28 | 显示全部楼层
不知道片子质量怎么样

加入蓝光高清网VIP会员  无限制下载本站所有资源---点此加入

资源下载、资源播放、字幕使用、无法下载等常见问题---点这里

回复

使用道具 举报

wangfeide4k 发表于 2019-10-3 14:23:52 | 显示全部楼层
2222222222222222222

加入蓝光高清网VIP会员  无限制下载本站所有资源---点此加入

资源下载、资源播放、字幕使用、无法下载等常见问题---点这里

回复

使用道具 举报

懒得打字嘛,点击右侧快捷回复
您需要登录后才可以回帖 登录 | 立即注册

本版积分规则

关注0

粉丝0

帖子237

发布主题
最新电影 论坛
广告位
联系我们
点击这里联系客服

服务时间:
周一到周日8:00-23:30

  • 打开微信扫一扫
    关注公众号

  • 手机QQ扫一扫
    添加客服

Archiver手机版蓝光高清网 ( 渝ICP备18006373号-2 )|网站地图

Powered by Discuz! X3.4  © 2001-2013 Comsenz Inc.