[剧情片] 保密天使/小秘密 Little.Secrets.2001.1080p.AMZN.WEBRip.DDP5.1.x264-monkee 9.92GB

[复制链接]
蓝鸟VIP会员 永久VIP 发表于 2019-9-30 09:42:41 | 显示全部楼层 |阅读模式 打印 上一主题 下一主题

马上注册,轻松下载,海量资源,让你轻松玩转社区。

您需要 登录 才可以下载或查看,没有帐号?立即注册

x


译  名 保密天使 / 小秘密
片  名 Little Secrets
年  代 2001
产  地 美国
类  别 剧情 / 喜剧 / 音乐 / 家庭
语  言 英语
上映日期 2001-10-17(美国温馨电影节)
IMDb评分  6.4/10 from 2989 users
IMDb链接  http://www.imdb.com/title/tt0296845
豆瓣评分 7.9/10 from 243 users
豆瓣链接 https://movie.douban.com/subject/1469971/
片  长 96 分钟
导  演 Blair Treu
编  剧 Jessica Barondes
主  演 埃文·蕾切尔·伍德 Evan Rachel Wood
       迈克尔·安格拉诺 Michael Angarano
       大卫·加拉赫 David Gallagher


标  签 美国 | 青春 | 美国电影 | EvanRachelWood | 青春电影 | 小提琴 | 喜剧 | 埃文·蕾切尔·伍德

简  介  

  艾米丽(埃文·蕾切尔·伍德 Evan Rachel Wood 饰)是一个模样俊俏个性又开朗的可爱女孩,可是,她有着一段非常不幸的童年。在艾米丽很小的时候,她的父母就离开了她,之后,善良的好心夫妇罗琳(RuDee Lipscomb 饰)和艾迪(Rick Macy 饰)收养了她。艾米丽很早就知道了自己的身世,但她谁也没有告诉,她将自己的身世看做是世界上最大的秘密,要永远的守护下去。
  在学校里,艾米丽有很多的好伙伴,每当这些好伙伴干了一些调皮捣蛋的事情时,都会选择告诉口风最紧的艾米丽,久而久之,太多的秘密积压在艾米丽的心头,给她带来了巨大的压力。终于,艾米丽决定也倾诉一下自己的秘密。


该资源信息参数
  1. Video
  2. ID                                       : 1
  3. Format                                   : AVC
  4. Format/Info                              : Advanced Video Codec
  5. Format profile                           : High@L4
  6. Format settings                          : CABAC / 4 Ref Frames
  7. Format settings, CABAC                   : Yes
  8. Format settings, Reference frames        : 4 frames
  9. Codec ID                                 : V_MPEG4/ISO/AVC
  10. Duration                                 : 1 h 36 min
  11. Bit rate mode                            : Variable
  12. Bit rate                                 : 14.0 Mb/s
  13. Maximum bit rate                         : 15.0 Mb/s
  14. Width                                    : 1 920 pixels
  15. Height                                   : 1 080 pixels
  16. Display aspect ratio                     : 16:9
  17. Frame rate mode                          : Constant
  18. Frame rate                               : 23.976 (24000/1001) FPS
  19. Color space                              : YUV
  20. Chroma subsampling                       : 4:2:0
  21. Bit depth                                : 8 bits
  22. Scan type                                : Progressive
  23. Bits/(Pixel*Frame)                       : 0.283
  24. Stream size                              : 9.48 GiB (96%)
  25. Default                                  : Yes
  26. Forced                                   : No
  27. Color range                              : Limited
  28. Color primaries                          : BT.709
  29. Transfer characteristics                 : BT.709
  30. Matrix coefficients                      : BT.709

  31. Audio
  32. ID                                       : 2
  33. Format                                   : E-AC-3
  34. Format/Info                              : Enhanced AC-3
  35. Commercial name                          : Dolby Digital Plus
  36. Codec ID                                 : A_EAC3
  37. Duration                                 : 1 h 36 min
  38. Bit rate mode                            : Constant
  39. Bit rate                                 : 640 kb/s
  40. Channel(s)                               : 6 channels
  41. Channel layout                           : L R C LFE Ls Rs
  42. Sampling rate                            : 48.0 kHz
  43. Frame rate                               : 31.250 FPS (1536 SPF)
  44. Compression mode                         : Lossy
  45. Stream size                              : 442 MiB (4%)
  46. Language                                 : English
  47. Service kind                             : Complete Main
  48. Default                                  : Yes
  49. Forced                                   : No

  50. Text
  51. ID                                       : 3
  52. Format                                   : UTF-8
  53. Codec ID                                 : S_TEXT/UTF8
  54. Codec ID/Info                            : UTF-8 Plain Text
  55. Duration                                 : 1 h 33 min
  56. Bit rate                                 : 64 b/s
  57. Count of elements                        : 1363
  58. Stream size                              : 43.8 KiB (0%)
  59. Language                                 : English
  60. Default                                  : No
  61. Forced                                   : No
复制代码


精彩剧照




蓝光高清网提示您 点击下方附件名称 马上开始下载



温馨提示:
本站资源优先使用迅雷下载,迅雷会员下载,速度基本可以跑满宽带
如果遇到无资源或者版权问题无法下载,推荐使用115网盘离线下载(点击查看115网盘离线下载教程


  • 该资源需要您回复以后 刷新网页进行下载操作

  • 1、Little.Secrets.2001.1080p.AMZN.WEBRip.DDP5.1.x264-monkee.torrent 50KB 已下载 0 次

加入蓝光高清网VIP会员  无限制下载本站所有资源---点此加入

资源下载、资源播放、字幕使用、无法下载等常见问题---点这里

回复

使用道具 举报

懒得打字嘛,点击右侧快捷回复
高级模式
B Color Image Link Quote Code Smilies 上传

本版积分规则

关注0

粉丝0

帖子68439

发布主题
最新电影 论坛
广告位
联系我们
点击这里联系客服

服务时间:
周一到周日8:00-23:30

  • 打开微信扫一扫
    关注公众号

  • 手机QQ扫一扫
    添加客服

Archiver手机版蓝光高清网 ( 渝ICP备18006373号-2 )|网站地图

Powered by Discuz! X3.4  © 2001-2013 Comsenz Inc.