[恐怖片] 新魔王撒旦的奴隶/凶铃契约 Satans.Slaves.2017.720p.BluRay.x264-REGRET 4.38GB

[复制链接]
蓝鸟 发表于 2019-10-2 02:45:14 | 显示全部楼层 |阅读模式 打印 上一主题 下一主题

新魔王撒旦的奴隶/凶铃契约 Satans.Slaves.2017.720p.BluRay.x264-REGRET 4.38GB-1.jpg
◎译  名 新魔王撒旦的奴隶/凶铃契约(港)/鬼摇铃(台)
◎片  名 Pengabdi Setan
◎年  代 2017
◎产  地 印度尼西亚
◎类  别 恐怖
◎语  言 印尼语
◎上映日期 2017-09-28(印度尼西亚)
◎豆瓣评分 /10 from 0 users
◎豆瓣链接 https://movie.douban.com/subject/27166047/
◎片  长 107分钟
◎导  演 乔可·安华 Joko Anwar
◎主  演 博朗·帕拉雷 Bront Palarae
      Tara Basro

◎简  介

  里妮一家人住在城郊的舊屋,原本幸福的家庭卻在媽媽生了一場怪病後而急轉直下。臥病在床的媽媽總是搖鈴鐺來呼喚家人,但媽媽過世後,家人卻仍在午夜聽見陣陣淒厲鈴聲,家中出現鬼影;慈祥的奶奶也離奇身亡。原來媽媽生前為了生育,曾與惡靈訂下契約,大女兒里妮找來伊斯蘭教長為驅逐惡靈,但鈴聲一響,厲鬼索命,這家人只能血債血償…。


该资源信息参数

  1. Video
  2. ID                                       : 1
  3. Format                                   : AVC
  4. Format/Info                              : Advanced Video Codec
  5. Format profile                           : [email protected]
  6. Format settings                          : CABAC / 5 Ref Frames
  7. Format settings, CABAC                   : Yes
  8. Format settings, RefFrames               : 5 frames
  9. Codec ID                                 : V_MPEG4/ISO/AVC
  10. Duration                                 : 1 h 46 min
  11. Bit rate                                 : 5 256 kb/s
  12. Width                                    : 1 280 pixels
  13. Height                                   : 536 pixels
  14. Display aspect ratio                     : 2.40:1
  15. Frame rate mode                          : Constant
  16. Frame rate                               : 24.000 FPS
  17. Color space                              : YUV
  18. Chroma subsampling                       : 4:2:0
  19. Bit depth                                : 8 bits
  20. Scan type                                : Progressive
  21. Bits/(Pixel*Frame)                       : 0.319
  22. Stream size                              : 3.90 GiB (89%)
  23. Writing library                          : x264 core 155 r2901 7d0ff22
  24. Encoding settings                        : cabac=1 / ref=5 / deblock=1:-3:-3 / analyse=0x3:0x133 / me=umh / subme=9 / psy=1 / psy_rd=1.00:0.00 / mixed_ref=1 / me_range=16 / chroma_me=1 / trellis=2 / 8x8dct=1 / cqm=0 / deadzone=21,11 / fast_pskip=0 / chroma_qp_offset=-2 / threads=17 / lookahead_threads=1 / sliced_threads=0 / nr=0 / decimate=1 / interlaced=0 / bluray_compat=0 / constrained_intra=0 / bframes=3 / b_pyramid=2 / b_adapt=1 / b_bias=0 / direct=3 / weightb=1 / open_gop=0 / weightp=2 / keyint=240 / keyint_min=24 / scenecut=40 / intra_refresh=0 / rc_lookahead=50 / rc=2pass / mbtree=1 / bitrate=5256 / ratetol=1.0 / qcomp=0.60 / qpmin=0 / qpmax=69 / qpstep=4 / cplxblur=20.0 / qblur=0.5 / ip_ratio=1.40 / aq=1:1.00
  25. Language                                 : English
  26. Default                                  : Yes
  27. Forced                                   : No

  28. Audio
  29. ID                                       : 2
  30. Format                                   : AC-3
  31. Format/Info                              : Audio Coding 3
  32. Format settings, Endianness              : Big
  33. Codec ID                                 : A_AC3
  34. Duration                                 : 1 h 46 min
  35. Bit rate mode                            : Constant
  36. Bit rate                                 : 640 kb/s
  37. Channel(s)                               : 6 channels
  38. Channel positions                        : Front: L C R, Side: L R, LFE
  39. Sampling rate                            : 48.0 kHz
  40. Frame rate                               : 31.250 FPS (1536 SPF)
  41. Bit depth                                : 16 bits
  42. Compression mode                         : Lossy
  43. Stream size                              : 486 MiB (11%)
  44. Language                                 : Indonesian
  45. Service kind                             : Complete Main
  46. Default                                  : Yes
  47. Forced                                   : No

  48. Text
  49. ID                                       : 3
  50. Format                                   : UTF-8
  51. Codec ID                                 : S_TEXT/UTF8
  52. Codec ID/Info                            : UTF-8 Plain Text
  53. Duration                                 : 1 h 43 min
  54. Bit rate                                 : 23 b/s
  55. Count of elements                        : 804
  56. Stream size                              : 17.9 KiB (0%)
  57. Title                                    : English
  58. Language                                 : English
  59. Default                                  : Yes
  60. Forced                                   : Yes

  61. Menu
  62. 00:00:00.000                             : en:00:00:00.000
  63. 00:10:37.875                             : en:00:10:37.875
  64. 00:16:37.542                             : en:00:16:37.542
  65. 00:27:08.083                             : en:00:27:08.083
  66. 00:35:42.333                             : en:00:35:42.333
  67. 00:44:42.417                             : en:00:44:42.417
  68. 00:53:29.833                             : en:00:53:29.833
  69. 01:01:02.625                             : en:01:01:02.625
  70. 01:08:54.708                             : en:01:08:54.708
  71. 01:18:46.208                             : en:01:18:46.208
  72. 01:29:09.125                             : en:01:29:09.125
  73. 01:36:55.250                             : en:01:36:55.250
复制代码




精彩剧照

新魔王撒旦的奴隶/凶铃契约 Satans.Slaves.2017.720p.BluRay.x264-REGRET 4.38GB-2.jpg





蓝光高清网提示您 点击下方附件名称 马上开始下载

Satans.Slaves.2017.720p.BluRay.x264-REGRET.torrent 
         (175.81 KB    阅读权限: 0)
加入蓝光高清网VIP会员  无限制下载本站所有资源---点这里

资源下载、资源播放、字幕使用、无法下载等常见问题---点这里
回复

使用道具 举报

您需要登录后才可以回帖 登录 | 立即注册

本版积分规则

关注0

粉丝1

帖子86455

发布主题
最新电影 论坛
本期活动
联系我们
点击这里联系客服

服务时间:
周一到周日8:00-23:30

  • 打开微信扫一扫
    关注公众号

  • 手机QQ扫一扫
    添加客服

手机版蓝光高清网 |网站地图

Powered by Discuz! X3.4 Licensed  © 2001-2013 Comsenz Inc.