[科幻片] 死亡半径 Radius.2017.720p.BluRay.x264-PFa 4.35GB

[复制链接]
蓝鸟VIP会员 永久VIP 发表于 2019-10-2 02:48:42 | 显示全部楼层 |阅读模式 打印 上一主题 下一主题

马上注册,轻松下载,海量资源,让你轻松玩转社区。

您需要 登录 才可以下载或查看,没有帐号?立即注册

x


◎译  名 死亡半径
◎片  名 Radius
◎年  代 2017
◎产  地 加拿大
◎类  别 科幻/惊悚
◎语  言 英语
◎上映日期 2017-07-17(奇幻电影节)
◎豆瓣评分 6.3/10 from 2,932 users
◎豆瓣链接 https://movie.douban.com/subject/26939444/
◎片  长 92分钟
◎导  演 卡罗琳·拉布里奇 Caroline Labrèche / 史蒂夫·伦纳德 Steeve Léonard
◎主  演 迪亚哥·克莱特霍夫 Diego Klattenhoff
      夏洛蒂·苏利文 Charlotte Sullivan
      罗伯特·博尔赫斯 Robert Borges
      安德里亚·德尔·坎普 Andrea del Campo
      纳扎利·德姆克维奇 Nazariy Demkowicz
      布雷特·多纳休 Brett Donahue
      艾丽西亚·约翰斯顿 Alicia Johnston
      加斯·梅尔克利 Garth Merkeley
      达伦·罗斯 Darren Ross
      布拉德利·索茨基 Bradley Sawatzky

◎简  介

  利亚姆从车祸中醒来,却不记得他是谁。当他走进小镇寻求帮助时,他发现只有死人,所有的人都有着奇怪苍白的眼睛。利亚姆的第一感应是,一种病毒出现在空气中。但他很快就发现了可怕的真相:“任何一个在离他50英尺半径范围内的人都会立刻死亡。”


该资源信息参数

  1. Video
  2. ID                                       : 1
  3. Format                                   : AVC
  4. Format/Info                              : Advanced Video Codec
  5. Format profile                           : [email protected]
  6. Format settings                          : CABAC / 5 Ref Frames
  7. Format settings, CABAC                   : Yes
  8. Format settings, RefFrames               : 5 frames
  9. Codec ID                                 : V_MPEG4/ISO/AVC
  10. Duration                                 : 1 h 32 min
  11. Bit rate                                 : 5 233 kb/s
  12. Width                                    : 1 280 pixels
  13. Height                                   : 544 pixels
  14. Display aspect ratio                     : 2.35:1
  15. Frame rate mode                          : Constant
  16. Frame rate                               : 24.000 FPS
  17. Color space                              : YUV
  18. Chroma subsampling                       : 4:2:0
  19. Bit depth                                : 8 bits
  20. Scan type                                : Progressive
  21. Bits/(Pixel*Frame)                       : 0.313
  22. Stream size                              : 3.38 GiB (78%)
  23. Writing library                          : x264 core 155 r2901 7d0ff22
  24. Encoding settings                        : cabac=1 / ref=5 / deblock=1:0:0 / analyse=0x3:0x133 / me=umh / subme=8 / psy=1 / psy_rd=1.00:0.00 / mixed_ref=1 / me_range=16 / chroma_me=1 / trellis=1 / 8x8dct=1 / cqm=0 / deadzone=21,11 / fast_pskip=0 / chroma_qp_offset=-2 / threads=12 / lookahead_threads=2 / sliced_threads=0 / nr=0 / decimate=1 / interlaced=0 / bluray_compat=0 / constrained_intra=0 / bframes=3 / b_pyramid=2 / b_adapt=1 / b_bias=0 / direct=1 / weightb=1 / open_gop=0 / weightp=2 / keyint=250 / keyint_min=23 / scenecut=40 / intra_refresh=0 / rc_lookahead=40 / rc=2pass / mbtree=1 / bitrate=5233 / ratetol=1.0 / qcomp=0.60 / qpmin=0 / qpmax=69 / qpstep=4 / cplxblur=20.0 / qblur=0.5 / ip_ratio=1.40 / aq=1:1.00
  25. Language                                 : English
  26. Default                                  : Yes
  27. Forced                                   : No

  28. Audio
  29. ID                                       : 2
  30. Format                                   : DTS
  31. Format/Info                              : Digital Theater Systems
  32. Mode                                     : 16
  33. Format settings, Endianness              : Big
  34. Codec ID                                 : A_DTS
  35. Duration                                 : 1 h 32 min
  36. Bit rate mode                            : Constant
  37. Bit rate                                 : 1 509 kb/s
  38. Channel(s)                               : 6 channels
  39. Channel positions                        : Front: L C R, Side: L R, LFE
  40. Sampling rate                            : 48.0 kHz
  41. Frame rate                               : 93.750 FPS (512 SPF)
  42. Bit depth                                : 24 bits
  43. Compression mode                         : Lossy
  44. Stream size                              : 998 MiB (22%)
  45. Default                                  : Yes
  46. Forced                                   : No
复制代码




精彩剧照






蓝光高清网提示您 点击下方附件名称 马上开始下载



温馨提示:
本站资源优先使用迅雷下载,迅雷会员下载,速度基本可以跑满宽带
如果遇到无资源或者版权问题无法下载,推荐使用115网盘离线下载(点击查看115网盘离线下载教程


  • 该资源需要您回复以后 刷新网页进行下载操作

  • 1、Radius.2017.720p.BluRay.x264-PFa.torrent 175KB 已下载 0 次

加入蓝光高清网VIP会员  无限制下载本站所有资源---点此加入

资源下载、资源播放、字幕使用、无法下载等常见问题---点这里

回复

使用道具 举报

懒得打字嘛,点击右侧快捷回复
高级模式
B Color Image Link Quote Code Smilies 上传

本版积分规则

关注0

粉丝0

帖子71945

发布主题
最新电影 论坛
本期活动
联系我们
点击这里联系客服

服务时间:
周一到周日8:00-23:30

  • 打开微信扫一扫
    关注公众号

  • 手机QQ扫一扫
    添加客服

Archiver手机版蓝光高清网 ( 渝ICP备18006373号-2 )|网站地图

Powered by Discuz! X3.4  © 2001-2013 Comsenz Inc.