[剧情片] 格雷戈里奥·科尔特斯的歌谣 The.Ballad.of.Gregorio.Cortez.1982.720p.BluRay.x264-BiPOLAR 5.46GB

[复制链接]
蓝鸟 发表于 2019-10-2 22:04:48 | 显示全部楼层 |阅读模式 打印 上一主题 下一主题

格雷戈里奥·科尔特斯的歌谣 The.Ballad.of.Gregorio.Cortez.1982.720p.BluRay.x264-BiPOLAR 5.46GB-1.jpg
◎译  名 格雷戈里奥·科尔特斯的歌谣
◎片  名 格雷戈里奥·科尔特斯的歌谣 The Ballad of Gregorio Cortez
◎年  代 1982
◎国  家 美国
◎类  别 剧情 / 喜剧 / 西部
◎语  言 英语
◎上映日期 1982
◎IMDb评分  6.9/10 from 175 users
◎IMDb链接  http://www.imdb.com/title/tt3551840/
◎豆瓣评分 目前无人评价
◎豆瓣链接 https://movie.douban.com/subject/5050536/
◎片  长 104 min
◎导  演 罗伯特·M·扬
◎主  演 爱德华·詹姆斯·奥莫斯
      詹姆斯·盖蒙

◎简  介 

  The retelling of an incident in Gonzales, Texas in 1901 revolving around a stolen horse, mistaken identity and a killing. An unusual story of the all too usual exploitation of the powerless in Texas History.



该资源信息参数

  1. Video
  2. ID                                       : 1
  3. Format                                   : AVC
  4. Format/Info                              : Advanced Video Codec
  5. Format profile                           : [email protected]
  6. Format settings                          : CABAC / 5 Ref Frames
  7. Format settings, CABAC                   : Yes
  8. Format settings, ReFrames                : 5 frames
  9. Codec ID                                 : V_MPEG4/ISO/AVC
  10. Duration                                 : 1 h 46 min
  11. Bit rate                                 : 6 752 kb/s
  12. Width                                    : 1 280 pixels
  13. Height                                   : 688 pixels
  14. Display aspect ratio                     : 1.85:1
  15. Frame rate mode                          : Constant
  16. Frame rate                               : 23.976 (24000/1001) FPS
  17. Color space                              : YUV
  18. Chroma subsampling                       : 4:2:0
  19. Bit depth                                : 8 bits
  20. Scan type                                : Progressive
  21. Bits/(Pixel*Frame)                       : 0.320
  22. Stream size                              : 5.00 GiB (91%)
  23. Writing library                          : x264 core 155 r2901 7d0ff22
  24. Encoding settings                        : cabac=1 / ref=5 / deblock=1:-3:-3 / analyse=0x3:0x133 / me=umh / subme=9 / psy=1 / psy_rd=1.00:0.00 / mixed_ref=1 / me_range=16 / chroma_me=1 / trellis=2 / 8x8dct=1 / cqm=0 / deadzone=21,11 / fast_pskip=0 / chroma_qp_offset=-2 / threads=48 / lookahead_threads=4 / sliced_threads=0 / nr=0 / decimate=1 / interlaced=0 / bluray_compat=0 / constrained_intra=0 / bframes=3 / b_pyramid=2 / b_adapt=1 / b_bias=0 / direct=3 / weightb=1 / open_gop=0 / weightp=2 / keyint=240 / keyint_min=24 / scenecut=40 / intra_refresh=0 / rc_lookahead=50 / rc=2pass / mbtree=1 / bitrate=6752 / ratetol=1.0 / qcomp=0.60 / qpmin=0 / qpmax=69 / qpstep=4 / cplxblur=20.0 / qblur=0.5 / ip_ratio=1.40 / aq=1:1.00
  25. Language                                 : English
  26. Default                                  : Yes
  27. Forced                                   : No

  28. Audio
  29. ID                                       : 2
  30. Format                                   : FLAC
  31. Format/Info                              : Free Lossless Audio Codec
  32. Codec ID                                 : A_FLAC
  33. Duration                                 : 1 h 46 min
  34. Bit rate mode                            : Variable
  35. Bit rate                                 : 627 kb/s
  36. Channel(s)                               : 1 channel
  37. Channel layout                           : C
  38. Sampling rate                            : 48.0 kHz
  39. Frame rate                               : 11.719 FPS (4096 SPF)
  40. Bit depth                                : 24 bits
  41. Compression mode                         : Lossless
  42. Stream size                              : 476 MiB (8%)
  43. Writing library                          : libFLAC 1.2.1 (UTC 2007-09-17)
  44. Language                                 : English
  45. Default                                  : Yes
  46. Forced                                   : No

  47. Text #1
  48. ID                                       : 3
  49. Format                                   : UTF-8
  50. Codec ID                                 : S_TEXT/UTF8
  51. Codec ID/Info                            : UTF-8 Plain Text
  52. Duration                                 : 1 h 38 min
  53. Bit rate                                 : 57 b/s
  54. Count of elements                        : 1166
  55. Stream size                              : 41.2 KiB (0%)
  56. Title                                    : English
  57. Language                                 : English
  58. Default                                  : No
  59. Forced                                   : No

  60. Text #2
  61. ID                                       : 4
  62. Format                                   : UTF-8
  63. Codec ID                                 : S_TEXT/UTF8
  64. Codec ID/Info                            : UTF-8 Plain Text
  65. Duration                                 : 1 h 40 min
  66. Bit rate                                 : 63 b/s
  67. Count of elements                        : 1319
  68. Stream size                              : 46.8 KiB (0%)
  69. Title                                    : English SDH
  70. Language                                 : English
  71. Default                                  : No
  72. Forced                                   : No

  73. Menu
  74. 00:00:00.000                             : en:00:00:00.000
  75. 00:08:30.677                             : en:00:08:30.677
  76. 00:14:12.643                             : en:00:14:12.643
  77. 00:24:32.721                             : en:00:24:32.721
  78. 00:33:54.115                             : en:00:33:54.115
  79. 00:38:14.334                             : en:00:38:14.334
  80. 00:43:05.249                             : en:00:43:05.249
  81. 00:49:40.102                             : en:00:49:40.102
  82. 00:57:54.471                             : en:00:57:54.471
  83. 01:07:27.585                             : en:01:07:27.585
  84. 01:22:15.889                             : en:01:22:15.889
  85. 01:29:57.517                             : en:01:29:57.517
  86. 01:36:47.427                             : en:01:36:47.427
复制代码




精彩剧照

格雷戈里奥·科尔特斯的歌谣 The.Ballad.of.Gregorio.Cortez.1982.720p.BluRay.x264-BiPOLAR 5.46GB-2.jpg





蓝光高清网提示您 点击下方附件名称 马上开始下载

The.Ballad.of.Gregorio.Cortez.1982.720p.BluRay.x264-BiPOLAR.torrent 
         (109.94 KB    阅读权限: 0)
加入蓝光高清网VIP会员  无限制下载本站所有资源---点这里

资源下载、资源播放、字幕使用、无法下载等常见问题---点这里
回复

使用道具 举报

您需要登录后才可以回帖 登录 | 立即注册

本版积分规则

关注0

粉丝1

帖子86457

发布主题
最新电影 论坛
本期活动
联系我们
点击这里联系客服

服务时间:
周一到周日8:00-23:30

  • 打开微信扫一扫
    关注公众号

  • 手机QQ扫一扫
    添加客服

手机版蓝光高清网 |网站地图

Powered by Discuz! X3.4 Licensed  © 2001-2013 Comsenz Inc.